荣光无限论坛

找回密码
注册

扫一扫,访问微社区

新浪微博登陆

微博账号登录

搜索
热搜: 邀请 充值 邮箱
查看: 6782|回复: 69
收起左侧

[综艺现场] 1989. 今夜不设防 (VCD香港版/粤语无字幕 + DVD日本版/粤语日文字幕)

[复制链接]
发表于 2009-4-13 01:03 | 显示全部楼层 |阅读模式
1989年访谈“今夜不设防” (Celebrity talk show with Leslie Cheung)

《今夜不设防》是香港亚洲电视(ATV)1989年~1990年之间,星期六深夜成人清谈节目,黄霑、倪匡、蔡澜三人共同主持,常邀约娱乐圈名人任访谈嘉宾,十分受欢迎。1989年6月25日,张国荣应邀上节目,担任访谈嘉宾。整个访谈分5段落,约长50分钟。

VCD: MPG/1411Kbps/479MB(香港版本,本是国粤双语发音,已把左声道国语配音抹掉并复制为粤语)
DVDRip: MKV/2488Kbps/871MB(日本发行版本,粤语发音,日文字幕,清晰度很高,推荐这个作为电脑收藏)


疏忽大意,刚才翻了一遍才发现,这个访谈视频文件这几年竟然一直没有发布,所以特提供两个版本的下载,VCD版为MPG文件,可以直接刻录为VCD光盘;DVD文件考虑到比较大,所以制作为高清晰WMV视频留给大家欣赏收藏。

双语VCD合并为单语的很简单,使用会声会影 Ulead  VideoStudio 的复制声道功能就可以了。其缺点是合并出来的VCD文件不是立体声,不过大多数双语VCD使用单一声道都不是立体声的。
DVD卡拉OK版提取其中一个原声音轨(删除伴音音轨),使用 DVD2one 这款软件,重新复制一遍DVD文件即可,在压缩选项里删除不需要的音轨。如果只是调整DVDRip(AVI)文件默认选择的音轨顺序,则使用 VirtualDubMod 这款软件,在“流列表”里把第二道音轨移到第一个位置即可。


前段时间网站的下载版提供了一个FLV格式带中文字幕的“今夜不设防”视频
http://www.lesliecheung.com.cn/down/show/view-993.html

在线收看及文字资料:
http://www.lesliecheung.com.cn/archive/interview/view-80.html


编码信息:
  1. General
  2.     Unique ID : 244323285210247058415770521944992400022 (0xB7CEF3FF001C3FB097723F9519464296)
  3.     Complete name : 1989_Celebrity_Talk_Show_LESLIE.mkv
  4.     Format : Matroska
  5.     Format version : Version 1
  6.     File size : 871 MiB
  7.     Duration : 48mn 57s
  8.     Overall bit rate : 2 488 Kbps
  9.     Movie name : Celebrity talk show with Leslie Cheung (1989.6.25)
  10.     Encoded date : UTC 2009-03-25 09:36:16
  11.     Writing application : mkvmerge v2.2.0 ('Turn It On Again') built on Mar  4 2008 12:58:26
  12.     Writing library : libebml v0.7.7 + libmatroska v0.8.1

  13.   Video #1
  14.     ID : 1
  15.     Format : AVC
  16.     Format/Info : Advanced Video Codec
  17.     Format profile : Main@L3.0
  18.     Format settings, CABAC : Yes
  19.     Format settings, ReFrames : 4 frames
  20.     Codec ID : V_MPEG4/ISO/AVC
  21.     Duration : 48mn 57s
  22.     Bit rate : 2 247 Kbps
  23.     Width : 720 pixels
  24.     Height : 544 pixels
  25.     Display aspect ratio : 4:3
  26.     Original display aspect ratio : 4:3
  27.     Frame rate : 29.970 fps
  28.     Color space : YUV
  29.     Chroma subsampling : 4:2:0
  30.     Bit depth : 8 bits
  31.     Scan type : Progressive
  32.     Bits/(Pixel*Frame) : 0.191
  33.     Stream size : 787 MiB (90%)
  34.     Writing library : x264 core 116 r2019 9cc407d
  35.     Encoding settings : cabac=1 / ref=3 / deblock=1:0:0 / analyse=0x1:0x111 / me=hex / subme=5 / psy=1 / psy_rd=1.00:0.00 / mixed_ref=1 / me_range=16 / chroma_me=1 / trellis=1 / 8x8dct=0 / cqm=0 / deadzone=21,11 / fast_pskip=1 / chroma_qp_offset=0 / threads=3 / sliced_threads=0 / nr=0 / decimate=1 / interlaced=0 / bluray_compat=0 / constrained_intra=0 / bframes=3 / b_pyramid=2 / b_adapt=1 / b_bias=0 / direct=1 / weightb=1 / open_gop=0 / weightp=2 / keyint=250 / keyint_min=25 / scenecut=40 / intra_refresh=0 / rc_lookahead=40 / rc=crf / mbtree=1 / crf=5.0 / qcomp=0.60 / qpmin=0 / qpmax=69 / qpstep=4 / vbv_maxrate=2600 / vbv_bufsize=520 / crf_max=0.0 / nal_hrd=none / ip_ratio=1.40 / aq=1:1.00
  36.     Default : Yes
  37.     Forced : No

  38.   Audio #2
  39.     ID : 2
  40.     Format : AC-3
  41.     Format/Info : Audio Coding 3
  42.     Mode extension : CM (complete main)
  43.     Format settings, Endianness : Big
  44.     Codec ID : A_AC3
  45.     Duration : 48mn 57s
  46.     Bit rate mode : Constant
  47.     Bit rate : 192 Kbps
  48.     Channel(s) : 2 channels
  49.     Channel positions : Front: L R
  50.     Sampling rate : 48.0 KHz
  51.     Bit depth : 16 bits
  52.     Compression mode : Lossy
  53.     Stream size : 67.2 MiB (8%)
  54.     Default : Yes
  55.     Forced : No  
复制代码
DVD版截图:
[attach]59599[/attach]

[attach]59600[/attach]

[attach]59601[/attach]

[attach]59602[/attach]

[attach]59603[/attach]

[attach]59604[/attach]

[attach]59605[/attach]

[attach]59606[/attach]

[attach]59607[/attach]

[attach]59608[/attach]

购买主题 已有 17 人购买  本主题需向作者支付 100 元荣币 才能浏览
发表于 2009-4-13 08:49 | 显示全部楼层
谢谢,正在下。
发表于 2009-4-13 19:54 | 显示全部楼层
太好了……我以前看的都是普通話混粵語的……結果就是兩邊都聼不清……
在下了在了下,謝謝!
发表于 2009-4-13 20:50 | 显示全部楼层
DVD: WMV/1414Kbps/489MB(日本版本,粤语发音,因为是在日本发行的,所以增加了日文字幕,清晰度很高)

想不到有日文版,清晰的DVD,真好! 期待呢,什麼時候可以下? 我一定會等
发表于 2009-4-14 14:15 | 显示全部楼层
那个国语版实在太雷了,我实在听不下去了,还是来老大的这个版本吧
发表于 2009-4-14 16:49 | 显示全部楼层
呵呵  又有好東東了
謝謝老大

價格合理   速度不錯
发表于 2009-4-14 22:06 | 显示全部楼层
請問,那dvd版本是否還在制作中呢?
如果仍在制作中,唔緊要,我會等的。
不過,做好後,可否通知聲! 謝謝老大!
发表于 2009-4-16 14:50 | 显示全部楼层
等着看DVD版的
发表于 2009-4-18 18:19 | 显示全部楼层
哦~~只要是清晰的~~~绝不手软~
发表于 2009-4-19 09:48 | 显示全部楼层
俺现在有钱了,一定要买!!
发表于 2009-4-19 16:53 | 显示全部楼层
我那天 明明买了  怎么又没了????
那天不是附件的形式哇!!!
发表于 2009-4-19 20:55 | 显示全部楼层
已買了! 謝謝老大!
发表于 2009-4-26 06:54 | 显示全部楼层
多谢楼主分享!
发表于 2009-4-26 10:40 | 显示全部楼层
想买啊,努力攒钱ing
发表于 2009-4-30 16:46 | 显示全部楼层
我怎么找不到购买的地方?
您需要登录后才可以回帖 登录 | 注册 新浪微博登陆

本版积分规则

手机客户端|小黑屋|Archiver|QQ群|关于我们|联系方式| 荣光无限|沪ICP备09096540号-1     

© 2002-2017 荣光无限 - 张国荣歌影迷网   版权所有

快速回复 返回顶部 返回列表