荣光无限论坛

找回密码
注册

扫一扫,访问微社区

新浪微博登陆

微博账号登录

搜索
热搜: 邀请 充值 邮箱
查看: 58129|回复: 131
收起左侧

[演唱现场] 1990. 张国荣告别乐坛演唱会 [LD版] (LDRip.x264.MP3, 2.95GB)

    [复制链接]
发表于 2011-4-1 12:02 | 显示全部楼层 |阅读模式

马上注册,结交更多同道中人,享用更多功能,让你轻松融入哥迷大家庭。

您需要 登录 才可以下载或查看,没有帐号?注册 新浪微博登陆

x
2012/09/12 重新制作并发布。
频文件与简体中文、繁体广东方言的字幕一起封装为 MKV 格式。
所采用的外挂SRT字幕:http://bbs.lesliecheung.com.cn/thread-41621-1-1.html (更新时间:2011/04/01,如有错误请及时反馈)

视频编码:x264 ,码率:3383Kbps。画面尺寸:720 * 540(PAL制式  4:3 宽高比)
音频编码:MP3 / 2Ch,码率:320Kbps(源音频为 1509Kbps LPCM Audio 2Ch)
文件码率:3780Kbps,体积:2.95GB
外挂字幕:简体中文 / 繁体广东方言
封装格式:Matroska

曲目列表:

01. Opening/为你钟情
02. 侧面
03. 寂寞夜晚
04. Medley: 蓝色忧郁/少女心事/不羁的风/Monica
05. 当年情
06. Medley: 童年时/似水流年/但愿人长久
07. 千千阕歌
08. 爱慕
09. 暴风一族
10. 放荡
11. 倩女幽魂
12. Miss You Mich
13. 由零开始
14. 哥哥内心独白/告别宣言
15. 共同渡过
16. 风继续吹
17. 明星
18. The Way We Were
19. 风再起时
20. 封咪仪式/Closing

编码信息:
  1.     General
  2.     Unique ID : 253587922290560778908221886420058370752 (0xBEC741DEE663A55DA7D0CA49C8FFF2C0)
  3.     Format : Matroska
  4.     Format version : Version 2
  5.     File size : 2.95 GiB
  6.     Duration : 1h 51mn
  7.     Overall bit rate : 3 779 Kbps
  8.     Movie name : Leslie Cheung Final Encounter of the Legend
  9.     Encoded date : UTC 2012-09-12 11:10:30
  10.     Writing application : mkvmerge v5.8.0 ('No Sleep / Pillow') built on Sep  2 2012 15:37:04
  11.     Writing library : libebml v1.2.3 + libmatroska v1.3.0

  12.     Video #1
  13.     ID : 1
  14.     Format : AVC
  15.     Format/Info : Advanced Video Codec
  16.     Format profile : Main@L3.0
  17.     Format settings, CABAC : Yes
  18.     Format settings, ReFrames : 4 frames
  19.     Muxing mode : Header stripping
  20.     Codec ID : V_MPEG4/ISO/AVC
  21.     Duration : 1h 51mn
  22.     Bit rate : 3 383 Kbps
  23.     Width : 720 pixels
  24.     Height : 544 pixels
  25.     Display aspect ratio : 4:3
  26.     Original display aspect ratio : 4:3
  27.     Frame rate : 29.970 fps
  28.     Color space : YUV
  29.     Chroma subsampling : 4:2:0
  30.     Bit depth : 8 bits
  31.     Scan type : Progressive
  32.     Bits/(Pixel*Frame) : 0.288
  33.     Stream size : 2.64 GiB (90%)
  34.     Writing library : x264 core 116 r2019 9cc407d
  35.     Encoding settings : cabac=1 / ref=3 / deblock=1:0:0 / analyse=0x1:0x111 / me=hex / subme=5 / psy=1 / psy_rd=1.00:0.00 / mixed_ref=1 / me_range=16 / chroma_me=1 / trellis=1 / 8x8dct=0 / cqm=0 / deadzone=21,11 / fast_pskip=1 / chroma_qp_offset=0 / threads=3 / sliced_threads=0 / nr=0 / decimate=1 / interlaced=0 / bluray_compat=0 / constrained_intra=0 / bframes=3 / b_pyramid=2 / b_adapt=1 / b_bias=0 / direct=1 / weightb=1 / open_gop=0 / weightp=2 / keyint=250 / keyint_min=25 / scenecut=40 / intra_refresh=0 / rc_lookahead=40 / rc=crf / mbtree=1 / crf=15.0 / qcomp=0.60 / qpmin=0 / qpmax=69 / qpstep=4 / vbv_maxrate=3600 / vbv_bufsize=720 / crf_max=0.0 / nal_hrd=none / ip_ratio=1.40 / aq=1:1.00
  36.     Default : Yes
  37.     Forced : No

  38.     Audio #2
  39.     ID : 2
  40.     Format : MPEG Audio
  41.     Format version : Version 1
  42.     Format profile : Layer 3
  43.     Mode : Joint stereo
  44.     Mode extension : MS Stereo
  45.     Muxing mode : Header stripping
  46.     Codec ID : A_MPEG/L3
  47.     Codec ID/Hint : MP3
  48.     Duration : 1h 51mn
  49.     Bit rate mode : Constant
  50.     Bit rate : 320 Kbps
  51.     Channel(s) : 2 channels
  52.     Sampling rate : 48.0 KHz
  53.     Compression mode : Lossy
  54.     Stream size : 256 MiB (8%)
  55.     Writing library : LAME
  56.     Default : Yes
  57.     Forced : No

  58.     Text #3
  59.     ID : 3
  60.     Format : UTF-8
  61.     Codec ID : S_TEXT/UTF8
  62.     Codec ID/Info : UTF-8 Plain Text
  63.     Title : 简体中文 (by Joseffu @ gorgor.org)
  64.     Language : Chinese
  65.     Default : Yes
  66.     Forced : No

  67.     Text #4
  68.     ID : 4
  69.     Format : UTF-8
  70.     Codec ID : S_TEXT/UTF8
  71.     Codec ID/Info : UTF-8 Plain Text
  72.     Title : 繁體中文 (by Joseffu & Marcella @ gorgor.org)
  73.     Language : Chinese
  74.     Default : No
  75.     Forced : No
复制代码
推荐使用完美解码、终极解码(使用内置的 PotPlayer 播放器)等播放器播放。可以选择是否显示字幕,以及切换简体中文/繁体中文字幕。
使用 PotPlayer 播放器,字幕字体设置为 “微软雅黑”、“PMingLiU” 或 “黑体” ,可以完整显示广东方言繁体中文字幕。

画面截图:

(截图尺寸:720*544,实际播放的画质要高于动态截图)

LESLIE90_20110404_095921.jpg

LESLIE90_20110404_095926.jpg

LESLIE90_20110404_100257.jpg

LESLIE90_20110404_100356.jpg

LESLIE90_20110404_100431.jpg

LESLIE90_20110404_100519.jpg

LESLIE90_20110404_100559.jpg

下载地址:
游客,如果您要查看本帖隐藏内容请回复
发表于 2011-4-1 13:03 | 显示全部楼层
等待。辛苦。
发表于 2011-4-1 19:32 | 显示全部楼层
继续等待,感谢
发表于 2011-4-2 15:21 | 显示全部楼层
很感谢你的制作 告别是我最喜欢的演唱会 但不希望是告别 89真是一个高峰
发表于 2011-4-3 21:08 | 显示全部楼层
感谢老大的辛勤劳动……
发表于 2011-4-4 04:25 | 显示全部楼层
这么好的东西给我找到了 谢谢分享 感谢
发表于 2011-4-4 09:48 | 显示全部楼层
有没预览图啊~~~~
不过,多谢多谢啦~~~
发表于 2011-4-4 16:30 | 显示全部楼层
谢谢老大
发表于 2011-4-5 01:04 | 显示全部楼层
昨天刚在北京活动看了告别,气氛真好,感谢老大重新制作
发表于 2011-4-5 20:42 | 显示全部楼层
感谢分享
发表于 2011-4-5 21:08 | 显示全部楼层
感谢老大重新制作。
发表于 2011-4-6 10:45 | 显示全部楼层
除了与大家一起共享好的气氛,还想有一份独自内心的感受。感谢老大重新制作
发表于 2011-4-6 14:24 | 显示全部楼层
下好了,效果很好呢~
发表于 2011-4-8 22:29 | 显示全部楼层
下了~ 谢谢~~
发表于 2011-4-25 17:27 | 显示全部楼层
感谢分享!~
您需要登录后才可以回帖 登录 | 注册 新浪微博登陆

本版积分规则

手机客户端|小黑屋|Archiver|QQ群|关于我们|联系方式| 荣光无限|沪ICP备09096540号-1     

© 2002-2017 荣光无限 - 张国荣歌影迷网   版权所有

快速回复 返回顶部 返回列表