荣光无限论坛

找回密码
注册

扫一扫,访问微社区

新浪微博登陆

只需一步, 快速开始

搜索
热搜: 邀请 充值 邮箱
查看: 5587|回复: 20
收起左侧

2003. 黄霑狮子山下演唱会 (DVDRip.x264.AC3.DD51) [1.95GB]

[复制链接]
发表于 2012-9-3 13:23 | 显示全部楼层 |阅读模式

学者灵芝 - 黄沾狮子山下演唱会2003
The Concert Below Lion Mountain Of James Wong


内容简介:
霑叔一连两场的《狮子山下演唱会》于2003年7月在香港红馆举行,特邀“香港中乐团”担纲演出,香港资深音乐人黄霑生前最辉煌见证,“狮子山下演唱会”大师阎惠昌指挥百人中乐园现场伴奏,叶丽仪、叶振棠、钟镇涛、郑裕玲、郑中基、吕方、叶倩文、巨星云集演绎最精华之作,现场气氛愉快而诙谐,绝无仅有的珍藏版!

曲目列表:
01. 狮子山下 - 演奏 + 和唱
02. 南音 - 黄霑
03. 沧海一声笑 - 黄霑
04. 十面埋伏 - 香港中乐团
05. 今天不回家 - 叶丽仪
06. 上海滩 - 叶丽仪
07. 夜来香 - 叶丽仪
08. Memory - 叶丽仪
09. 笛子姑娘 - 叶振棠
10. 忘尽心中情 - 叶振棠
11. 太极张三丰 - 叶振棠
12. 让一切随风 - 钟镇涛
13. 今天我非常寂寞 - 钟镇涛
14. 问我 - 钟镇涛
15. 香港最叻 (串联) - 嘉宾:郑裕玲
16. 浪子心声 - 郑中基
17. 男儿当自强 - 郑中基
18. 弯弯的月亮 - 吕方
19. 晚风 - 叶倩文
20. 焚心以火 - 叶倩文
21. 狮子山下 - 所有歌星

编码信息:
  1. General
  2. Unique ID : 216628928046842155995800564009269479152 (0xA2F936C46ADCA6D2A4438B802F0446F0)
  3. Format : Matroska
  4. Format version : Version 2
  5. File size : 1.96 GiB
  6. Duration : 1h 50mn
  7. Overall bit rate : 2 549 Kbps
  8. Movie name : 黃霑獅子山下演唱會
  9. Encoded date : UTC 2012-08-31 13:56:52
  10. Writing application : mkvmerge v4.3.0 ('Escape from the Island') 编译于 Sep 5 2010 10:30:51
  11. Writing library : libebml v1.0.0 + libmatroska v1.0.0

  12. Video #1
  13. ID : 1
  14. Format : AVC
  15. Format/Info : Advanced Video Codec
  16. Format profile : Main@L3.0
  17. Format settings, CABAC : Yes
  18. Format settings, ReFrames : 4 frames
  19. Muxing mode : Header stripping
  20. Codec ID : V_MPEG4/ISO/AVC
  21. Duration : 1h 50mn
  22. Bit rate : 2 114 Kbps
  23. Width : 720 pixels
  24. Height : 544 pixels
  25. Display aspect ratio : 4:3
  26. Frame rate : 29.970 fps
  27. Color space : YUV
  28. Chroma subsampling : 4:2:0
  29. Bit depth : 8 bits
  30. Scan type : Progressive
  31. Bits/(Pixel*Frame) : 0.180
  32. Stream size : 1.63 GiB (83%)
  33. Writing library : x264 core 116 r2019 9cc407d
  34. Encoding settings : cabac=1 / ref=3 / deblock=1:0:0 / analyse=0x1:0x111 / me=hex / subme=5 / psy=1 / psy_rd=1.00:0.00 / mixed_ref=1 / me_range=16 / chroma_me=1 / trellis=1 / 8x8dct=0 / cqm=0 / deadzone=21,11 / fast_pskip=1 / chroma_qp_offset=0 / threads=3 / sliced_threads=0 / nr=0 / decimate=1 / interlaced=0 / bluray_compat=0 / constrained_intra=0 / bframes=3 / b_pyramid=2 / b_adapt=1 / b_bias=0 / direct=1 / weightb=1 / open_gop=0 / weightp=2 / keyint=250 / keyint_min=25 / scenecut=40 / intra_refresh=0 / rc_lookahead=40 / rc=crf / mbtree=1 / crf=15.0 / qcomp=0.60 / qpmin=0 / qpmax=69 / qpstep=4 / vbv_maxrate=2300 / vbv_bufsize=460 / crf_max=0.0 / nal_hrd=none / ip_ratio=1.40 / aq=1:1.00
  35. Default : Yes
  36. Forced : No

  37. Audio #2
  38. ID : 2
  39. Format : AC-3
  40. Format/Info : Audio Coding 3
  41. Mode extension : CM (complete main)
  42. Format settings, Endianness : Big
  43. Muxing mode : Header stripping
  44. Codec ID : A_AC3
  45. Duration : 1h 50mn
  46. Bit rate mode : Constant
  47. Bit rate : 384 Kbps
  48. Channel(s) : 6 channels
  49. Channel positions : Front: L C R, Side: L R, LFE
  50. Sampling rate : 48.0 KHz
  51. Bit depth : 16 bits
  52. Compression mode : Lossy
  53. Stream size : 302 MiB (15%)
  54. Default : Yes
  55. Forced : No

  56. Text #3
  57. ID : 3
  58. Format : VobSub
  59. Muxing mode : zlib
  60. Codec ID : S_VOBSUB
  61. Codec ID/Info : The same subtitle format used on DVDs
  62. Language : Chinese
  63. Default : Yes
  64. Forced : No
复制代码

购买主题 已有 20 人购买  本主题需向作者支付 200 元荣币 才能浏览
发表于 2012-9-6 22:59 | 显示全部楼层
超爱沾叔的侠义精神和江湖豪气~~ 已下载,谢谢老大分享。
发表于 2014-9-2 16:16 | 显示全部楼层
这部很成功
发表于 2014-9-9 18:43 | 显示全部楼层
黄霑与顾嘉辉两位大师的作品不错
发表于 2014-12-30 21:05 | 显示全部楼层
謝謝分享經典演唱會﹗
发表于 2015-1-15 14:45 | 显示全部楼层
多谢楼主分享楼主辛苦了
发表于 2015-1-27 00:01 | 显示全部楼层
霑叔离开我们十几年了,经典作品无数值得怀念
发表于 2015-3-3 13:38 | 显示全部楼层
霑叔的演唱会都是经典,最喜欢98.
发表于 2015-4-8 12:57 | 显示全部楼层
荣币怎么得
发表于 2015-4-10 01:02 | 显示全部楼层
太好了 谢谢
发表于 2015-4-10 13:05 | 显示全部楼层
还有吗 买了 试试,希望有
发表于 2015-5-26 23:11 | 显示全部楼层
请问你买到了吗
发表于 2015-8-3 14:52 | 显示全部楼层
一代才子!!好怀念沾叔!
发表于 2016-11-3 00:24 | 显示全部楼层
你好,为什么荣币充值不了,充值时弹出一片英文。
发表于 2016-11-4 00:59 | 显示全部楼层
如许_C6lLw 发表于 2016-11-3 00:24
你好,为什么荣币充值不了,充值时弹出一片英文。

请问还有资源吗?这个用不了。
您需要登录后才可以回帖 登录 | 注册 新浪微博登陆

本版积分规则

手机客户端|小黑屋|Archiver|QQ群|关于我们|联系方式| 荣光无限|沪ICP备09096540号-1     

© 2002-2018 荣光无限 - 张国荣歌影迷网   版权所有

快速回复 返回顶部 返回列表