荣光无限论坛

找回密码
注册

扫一扫,访问微社区

新浪微博登陆

微博账号登录

搜索
热搜: 邀请 充值 邮箱
查看: 1927|回复: 5
收起左侧

2008. 陈慧娴活出生命II演唱会 (DVDRip.x264.DTS) [3GB]

[复制链接]
发表于 2012-9-9 18:21 | 显示全部楼层 |阅读模式
陈慧娴活出生命II演唱会2008 (卡拉OK字幕版 2.2GB + 无字幕欣赏版 3GB)

很难理解这样水平的演唱会为什么不采用高清录制,为什么不出蓝光?那些垃圾歌手演唱会搞得一个比一个清晰,录影及出版方脑袋里装满了shit !

[attach]74226[/attach]

内容介绍:
继2003年推出大碟《情意结》及举行演唱会后,陈慧娴已有四年多没有发片,2008年重新出发,于2月8日至9日在九龙湾展贸 Star Hall 举行一连两场的《陈慧娴活出生命II演唱会》,以大唱约27首好歌会乐迷,前段她演绎巨星经典和他人歌曲,包括∶「原来只要共你活一天」(原唱∶张学友)、「左右手」(张国荣)、「喝采」(陈百强)和「月半小夜曲」(李克勤),后段演唱个人经典「今天的爱人是谁」、「傻女」、「飘雪」和「千千阙歌」等。
继2004年张学友为《活出生命》举行Live慈善演唱会,慧娴重踏台阶为大家送上第二拨《活出生命II》演唱会,当晚还请来草蜢的蔡一杰当表演嘉宾,与慧娴合唱一曲「一对寂寞的心」。由最佳音乐拍档区丁玉炮制,慧娴最新主打歌「无名指」亦收录于此《陈慧娴活出生命II演唱会》双DVD内。

专辑曲目:
01. Opening + My Love Will Get You Home
02. 明日有明天
03. 花火
04. 喝采
05. 最爱是谁
06. 爱在深秋
07. 左右手
08. Close To You
09. 相识非偶然
10. 默契
11. 月半小夜曲
12. Medley: 等了又等/ 原来只要共你活一天
13. 一对寂寞的心 - 蔡一杰合唱
14. 傻女
15. 花店
16. Joe Le Taxi
17. 今天的爱人是谁
18. Unplugged Medley: 玻璃窗的爱/人生何处不相逢/痴情意外
19. 情意结
20. 飘雪
21. 夜机
22. 无名指
23. Love Me Once Again
24. 几时再见?!
25. 逝去的诺言
26. 红茶馆
27. 千千阕歌

编码信息:
  1.     General
  2.     Unique ID : 182059248031090654595072151940334376771 (0x88F755F34A652A529A10076231A85743)
  3.     Complete name : 陈慧娴活出生命II演唱会2008.mkv
  4.     Format : Matroska
  5.     Format version : Version 2
  6.     File size : 2.38 GiB
  7.     Duration : 1h 55mn
  8.     Overall bit rate : 2 944 Kbps
  9.     Movie name : 陳慧嫻活出生命Ⅱ演唱會2008
  10.     Encoded date : UTC 2012-09-08 04:59:42
  11.     Writing application : mkvmerge v4.3.0 ('Escape from the Island') 编译于 Sep  5 2010 10:30:51
  12.     Writing library : libebml v1.0.0 + libmatroska v1.0.0

  13.     Video #1
  14.     ID : 1
  15.     Format : AVC
  16.     Format/Info : Advanced Video Codec
  17.     Format profile : Main@L3.1
  18.     Format settings, CABAC : Yes
  19.     Format settings, ReFrames : 4 frames
  20.     Muxing mode : Header stripping
  21.     Codec ID : V_MPEG4/ISO/AVC
  22.     Duration : 1h 55mn
  23.     Bit rate : 2 131 Kbps
  24.     Width : 960 pixels
  25.     Height : 544 pixels
  26.     Display aspect ratio : 16:9
  27.     Frame rate : 29.970 fps
  28.     Color space : YUV
  29.     Chroma subsampling : 4:2:0
  30.     Bit depth : 8 bits
  31.     Scan type : Progressive
  32.     Bits/(Pixel*Frame) : 0.136
  33.     Stream size : 1.72 GiB (72%)
  34.     Writing library : x264 core 116 r2019 9cc407d
  35.     Encoding settings : cabac=1 / ref=3 / deblock=1:0:0 / analyse=0x1:0x111 / me=hex / subme=6 / psy=1 / psy_rd=1.00:0.00 / mixed_ref=1 / me_range=16 / chroma_me=1 / trellis=1 / 8x8dct=0 / cqm=0 / deadzone=21,11 / fast_pskip=1 / chroma_qp_offset=-2 / threads=3 / sliced_threads=0 / nr=0 / decimate=1 / interlaced=0 / bluray_compat=0 / constrained_intra=0 / bframes=3 / b_pyramid=2 / b_adapt=1 / b_bias=0 / direct=1 / weightb=1 / open_gop=0 / weightp=2 / keyint=250 / keyint_min=25 / scenecut=40 / intra_refresh=0 / rc_lookahead=40 / rc=crf / mbtree=1 / crf=15.0 / qcomp=0.60 / qpmin=0 / qpmax=69 / qpstep=4 / vbv_maxrate=2500 / vbv_bufsize=500 / crf_max=0.0 / nal_hrd=none / ip_ratio=1.40 / aq=1:1.00
  36.     Default : Yes
  37.     Forced : No

  38.     Audio #2
  39.     ID : 2
  40.     Format : DTS
  41.     Format/Info : Digital Theater Systems
  42.     Format profile : ES
  43.     Muxing mode : Header stripping
  44.     Codec ID : A_DTS
  45.     Duration : 1h 55mn
  46.     Bit rate mode : Constant
  47.     Bit rate : 755 Kbps
  48.     Channel(s) : 6 channels
  49.     Channel positions : Front: L C R, Side: L R, LFE
  50.     Sampling rate : 48.0 KHz
  51.     Bit depth : 16 bits
  52.     Compression mode : Lossy
  53.     Stream size : 624 MiB (26%)
  54.     Language : Chinese
  55.     Default : Yes
  56.     Forced : No
复制代码


购买主题 已有 7 人购买  本主题需向作者支付 200 元荣币 才能浏览
发表于 2015-1-1 04:10 | 显示全部楼层
謝謝好歌分享﹗
发表于 2016-10-20 09:47 | 显示全部楼层
谢谢分享
头像被屏蔽
发表于 2017-3-24 02:34 | 显示全部楼层
提示: 作者被禁止或删除 内容自动屏蔽
发表于 2017-3-29 06:26 | 显示全部楼层
声线很好,老歌更好听。
发表于 2017-8-2 21:58 | 显示全部楼层
谢谢分享啊
您需要登录后才可以回帖 登录 | 注册 新浪微博登陆

本版积分规则

手机客户端|小黑屋|Archiver|QQ群|关于我们|联系方式| 荣光无限|沪ICP备09096540号-1     

© 2002-2017 荣光无限 - 张国荣歌影迷网   版权所有

快速回复 返回顶部 返回列表