荣光无限论坛

找回密码
注册

微信账号登录

QQ登录

只需一步,快速开始

新浪微博登陆

微博账号登录

搜索
热搜: 邀请 充值 邮箱
查看: 3801|回复: 38
收起左侧

[视频音乐] 1996. 哥哥的前半生 - 张国荣入门26首 [卡拉OK/MV] (LDRip / 2GB)

[复制链接]
发表于 2012-10-18 18:27 | 显示全部楼层 |阅读模式

马上注册,结交更多同道中人,享用更多功能,让你轻松融入哥迷大家庭。

您需要 登录 才可以下载或查看,没有帐号?注册 新浪微博登陆

x
哥哥的前半生 - 张国荣入门26首 (LD 完整版本)
leslie_cap_26.jpg
视频格式:LDRip.x264.AC3.2Ch
x264 视频编码;立体声 AC3 音频,48KHz / 384Kbps

1996年出版的卡拉OK版本的MV,双LD,同期还出版了收录有30首歌曲的同名2CD精选集。
《哥哥的前半生》是非常经典的MV精选,基本上囊括了哥哥华星时代所有的MV,这个资源现在相当难找了,这些视频文件的数据源是通过播放原版LD采集的电视信号。


曲目列表:
01. 为你钟情  (79MB)
02. 风继续吹  (104MB)
03. Monica  (74MB)
04. 柔情蜜意  (60MB)
05. 谁令你心痴  (98MB)
06. 当年情  (85MB)
07. 黑色午夜  (80MB)
08. 我愿意  (82MB)
09. 不羁的风  (78MB)
10. 一片痴  (74MB)
11. 少女心事  (81MB)
12. 分手  (82MB)
13. 片段  (86MB)
14. 有谁共鸣  (78MB)
15. 侬本多情  (73MB)
16. Stand Up  (55MB)
17. 痴心的我  (75MB)
18. 缘份  (71MB)
19. 爱慕  (85MB)
20. 打开信箱  (74MB)
21. 不怕寂寞  (93MB)
22. 蓝色忧郁  (83MB)
23. 全赖有你  (109MB)
24. 默默向上游  (69MB)
25. 始终会行运  (55MB)
26. 第一次  (79MB)


编码信息(例:风继续吹):
  1.     General
  2.     Unique ID : 194899889715412924378661396656692291429 (0x92A05A76DAA0CD2CA172257750EE6765)
  3.     Complete name : 哥哥的前半生-张国荣入门26首\02.风继续吹.mkv
  4.     Format : Matroska
  5.     Format version : Version 2
  6.     File size : 105 MiB
  7.     Duration : 5mn 11s
  8.     Overall bit rate : 2 813 Kbps
  9.     Movie name : 張國榮 - 風繼續吹
  10.     Encoded date : UTC 2012-10-12 06:05:08
  11.     Writing application : mkvmerge v5.8.0 ('No Sleep / Pillow') built on Sep  2 2012 15:37:04
  12.     Writing library : libebml v1.2.3 + libmatroska v1.3.0

  13.     Video #1
  14.     ID : 1
  15.     Format : AVC
  16.     Format/Info : Advanced Video Codec
  17.     Format profile : Main@L3.0
  18.     Format settings, CABAC : Yes
  19.     Format settings, ReFrames : 4 frames
  20.     Muxing mode : Header stripping
  21.     Codec ID : V_MPEG4/ISO/AVC
  22.     Duration : 5mn 11s
  23.     Bit rate : 2 373 Kbps
  24.     Width : 720 pixels
  25.     Height : 544 pixels
  26.     Display aspect ratio : 4:3
  27.     Frame rate : 29.970 fps
  28.     Color space : YUV
  29.     Chroma subsampling : 4:2:0
  30.     Bit depth : 8 bits
  31.     Scan type : Progressive
  32.     Bits/(Pixel*Frame) : 0.202
  33.     Stream size : 88.2 MiB (84%)
  34.     Writing library : x264 core 116 r2019 9cc407d
  35.     Encoding settings : cabac=1 / ref=3 / deblock=1:0:0 / analyse=0x1:0x111 / me=hex / subme=5 / psy=1 / psy_rd=1.00:0.00 / mixed_ref=1 / me_range=16 / chroma_me=1 / trellis=1 / 8x8dct=0 / cqm=0 / deadzone=21,11 / fast_pskip=1 / chroma_qp_offset=0 / threads=3 / sliced_threads=0 / nr=0 / decimate=1 / interlaced=0 / bluray_compat=0 / constrained_intra=0 / bframes=3 / b_pyramid=2 / b_adapt=1 / b_bias=0 / direct=1 / weightb=1 / open_gop=0 / weightp=2 / keyint=250 / keyint_min=25 / scenecut=40 / intra_refresh=0 / rc_lookahead=40 / rc=crf / mbtree=1 / crf=16.0 / qcomp=0.60 / qpmin=0 / qpmax=69 / qpstep=4 / vbv_maxrate=2600 / vbv_bufsize=520 / crf_max=0.0 / nal_hrd=none / ip_ratio=1.40 / aq=1:1.00
  36.     Default : Yes
  37.     Forced : No

  38.     Audio #2
  39.     ID : 2
  40.     Format : AC-3
  41.     Format/Info : Audio Coding 3
  42.     Mode extension : CM (complete main)
  43.     Format settings, Endianness : Big
  44.     Muxing mode : Header stripping
  45.     Codec ID : A_AC3
  46.     Duration : 5mn 11s
  47.     Bit rate mode : Constant
  48.     Bit rate : 384 Kbps
  49.     Channel(s) : 2 channels
  50.     Channel positions : Front: L R
  51.     Sampling rate : 48.0 KHz
  52.     Bit depth : 16 bits
  53.     Compression mode : Lossy
  54.     Stream size : 14.3 MiB (14%)
  55.     Default : Yes
  56.     Forced : No
复制代码


下载地址:
游客,如果您要查看本帖隐藏内容请回复

发表于 2012-10-18 23:20 | 显示全部楼层
高清~~非常好,正好缺了几首高清MV~
发表于 2013-3-3 23:24 | 显示全部楼层
非常不错的资源,支持一下!
发表于 2013-4-18 18:47 | 显示全部楼层
谢谢楼主分享
发表于 2013-8-30 10:41 | 显示全部楼层
居然没有伴音音轨,希望楼主添加伴音音轨?
 楼主| 发表于 2013-8-30 19:02 | 显示全部楼层
tangxu 发表于 2013-8-30 10:41
居然没有伴音音轨,希望楼主添加伴音音轨?

请仔细看主题中的说明:“通过播放原版LD采集的电视信号”,只能同期采集一条音轨。
很遗憾,但是也没有再找到其他的原版转制的资源,这个比较稀缺。
发表于 2014-7-6 18:55 | 显示全部楼层
不会下载~求指教~~~
 楼主| 发表于 2014-7-6 23:25 | 显示全部楼层
leslie叶宝 发表于 2014-7-6 18:55
不会下载~求指教~~~

复制下载链接地址到下载工具(如迅雷)的新建任务栏里。
发表于 2014-7-9 09:59 | 显示全部楼层
谢谢分享!115要关了以后只能来这里淘资源了。
发表于 2014-7-22 23:46 | 显示全部楼层
Joseffu 发表于 2014-7-6 23:25
复制下载链接地址到下载工具(如迅雷)的新建任务栏里。

这个我试过了,不行
发表于 2014-8-29 19:08 | 显示全部楼层
Joseffu 发表于 2014-7-6 23:25
复制下载链接地址到下载工具(如迅雷)的新建任务栏里。

好的~会用啦~谢谢~
发表于 2015-6-3 15:27 | 显示全部楼层
谢谢楼主,辛苦啦!
发表于 2015-9-13 19:58 | 显示全部楼层
非常不错的资源,支持一下!
发表于 2016-3-8 17:57 | 显示全部楼层
可惜了,没有伴奏,不是真正的卡拉OK,希望楼主如果有机会的话能采集一下单独的伴奏轨道,真心谢谢了。
发表于 2016-4-5 22:22 | 显示全部楼层
支持哥哥的前半生
您需要登录后才可以回帖 登录 | 注册 新浪微博登陆

本版积分规则

手机客户端|小黑屋|Archiver|QQ群|关于我们|联系方式| 荣光无限|沪ICP备09096540号-1     

© 2002-2017 荣光无限 - 张国荣歌影迷网  版权所有

快速回复 返回顶部 返回列表