荣光无限论坛

找回密码
注册

扫一扫,访问微社区

新浪微博登陆

只需一步, 快速开始

搜索
热搜: 邀请 充值 邮箱
查看: 2894|回复: 59
收起左侧

[视频音乐] 2010. I Am What I Am (DVDRip / 1GB)

[复制链接]
发表于 2012-10-31 20:20 | 显示全部楼层 |阅读模式

马上注册,结交更多同道中人,享用更多功能,让你轻松融入哥迷大家庭。

您需要 登录 才可以下载或查看,没有帐号?注册 新浪微博登陆

x
环球唱片2010年3月23日发行,2CD + DVD。
其中DVD部分12首MV中,有6首MV首度出版DVD版本:没有爱、洁身自爱、玻璃之情、这么远那么近、我、大热、梦到内河。所以删除此前曾经提供下载的VCD版本。
另外6首MV在《Leslie best of music videos karaoke 1》这张精选卡拉OK中都出版过,旦鉴于本精选集都是单音轨欣赏版本(非卡拉OK大字幕),比较有收藏价值,所以仍是保留。

I AM WHAT I AM.jpg

文件格式:DVDRip.x264.AC3.2Ch
x264 视频编码;立体声 AC3 音频,48KHz / 256Kbps

曲目列表:

01. 我 (国)  (75MB)
02. 大热  (75MB)
03. 梦到内河  (73MB)
04. 没有爱  (85MB)
05. 洁身自爱  (86MB)
06. 玻璃之情  (87MB)
07. 这么远那么近 (主唱:黄耀明 / 独白:张国荣)  (103MB)
08. 左右手  (91MB)
09. 枕头  (92MB)
10. 小明星  (67MB)
11. I Honestly Love You  (80MB)
12. 你这样恨我  (104MB)

编码信息(例:我<国语版>):
  1. General
  2.     Unique ID : 249501010749880083916358112115314571286 (0xBBB42593196D59C080D7266126C6B816)
  3.     Complete name : 我 (国).mkv
  4.     Format : Matroska
  5.     Format version : Version 2
  6.     File size : 74.9 MiB
  7.     Duration : 3mn 56s
  8.     Overall bit rate : 2 655 Kbps
  9.     Movie name : 張國榮 - 我 (國語)
  10.     Encoded date : UTC 2012-10-12 04:43:21
  11.     Writing application : mkvmerge v5.8.0 ('No Sleep / Pillow') built on Sep  2 2012 15:37:04
  12.     Writing library : libebml v1.2.3 + libmatroska v1.3.0

  13.   Video #1
  14.     ID : 1
  15.     Format : AVC
  16.     Format/Info : Advanced Video Codec
  17.     Format profile : Main@L3.0
  18.     Format settings, CABAC : Yes
  19.     Format settings, ReFrames : 4 frames
  20.     Muxing mode : Header stripping
  21.     Codec ID : V_MPEG4/ISO/AVC
  22.     Duration : 3mn 56s
  23.     Bit rate : 2 346 Kbps
  24.     Width : 720 pixels
  25.     Height : 544 pixels
  26.     Display aspect ratio : 4:3
  27.     Frame rate : 29.970 fps
  28.     Color space : YUV
  29.     Chroma subsampling : 4:2:0
  30.     Bit depth : 8 bits
  31.     Scan type : Progressive
  32.     Bits/(Pixel*Frame) : 0.200
  33.     Stream size : 66.2 MiB (88%)
  34.     Writing library : x264 core 116 r2019 9cc407d
  35.     Encoding settings : cabac=1 / ref=3 / deblock=1:0:0 / analyse=0x1:0x111 / me=hex / subme=5 / psy=1 / psy_rd=1.00:0.00 / mixed_ref=1 / me_range=16 / chroma_me=1 / trellis=1 / 8x8dct=0 / cqm=0 / deadzone=21,11 / fast_pskip=1 / chroma_qp_offset=0 / threads=3 / sliced_threads=0 / nr=0 / decimate=1 / interlaced=0 / bluray_compat=0 / constrained_intra=0 / bframes=3 / b_pyramid=2 / b_adapt=1 / b_bias=0 / direct=1 / weightb=1 / open_gop=0 / weightp=2 / keyint=250 / keyint_min=25 / scenecut=40 / intra_refresh=0 / rc_lookahead=40 / rc=crf / mbtree=1 / crf=15.0 / qcomp=0.60 / qpmin=0 / qpmax=69 / qpstep=4 / vbv_maxrate=2800 / vbv_bufsize=560 / crf_max=0.0 / nal_hrd=none / ip_ratio=1.40 / aq=1:1.00
  36.     Default : Yes
  37.     Forced : No

  38.   Audio #2
  39.     ID : 2
  40.     Format : AC-3
  41.     Format/Info : Audio Coding 3
  42.     Mode extension : CM (complete main)
  43.     Format settings, Endianness : Big
  44.     Muxing mode : Header stripping
  45.     Codec ID : A_AC3
  46.     Duration : 3mn 56s
  47.     Bit rate mode : Constant
  48.     Bit rate : 256 Kbps
  49.     Channel(s) : 2 channels
  50.     Channel positions : Front: L R
  51.     Sampling rate : 48.0 KHz
  52.     Bit depth : 16 bits
  53.     Compression mode : Lossy
  54.     Stream size : 7.22 MiB (10%)
  55.     Default : Yes
  56.     Forced : No
复制代码


下载地址:
游客,如果您要查看本帖隐藏内容请回复

发表于 2013-6-7 20:26 | 显示全部楼层
感谢分享~~~~~~
发表于 2013-6-9 17:16 | 显示全部楼层
@Joseffu 第11首 I Honestly Love you 下载不了。
 楼主| 发表于 2013-6-9 18:11 | 显示全部楼层
路过_595 发表于 2013-6-9 17:16
@Joseffu 第11首 I Honestly Love you 下载不了。

down.png
测试可以正常下载。
发表于 2013-6-9 20:47 | 显示全部楼层
Joseffu 发表于 2013-6-9 18:11
测试可以正常下载。

哦,试了下,可以下载了。那能不能麻烦再试一下 http://bbs.lesliecheung.com.cn/thread-31642-1-3.html 这个的第一和第二个视频?好像下载不了啊?下载了几次都显示错误。
 楼主| 发表于 2013-6-9 21:31 | 显示全部楼层
路过_595 发表于 2013-6-9 20:47
哦,试了下,可以下载了。那能不能麻烦再试一下 http://bbs.lesliecheung.com.cn/thread-31642-1-3.html  ...

链接已更正。之前忘了改那个帖子,谢谢提醒。
发表于 2014-7-13 13:38 | 显示全部楼层
多谢分享~!
发表于 2014-7-13 15:40 | 显示全部楼层
多谢分享~~~~
发表于 2014-7-13 16:01 | 显示全部楼层
非常感谢分享
发表于 2014-7-13 17:26 | 显示全部楼层
谢谢分享
发表于 2014-7-13 19:30 | 显示全部楼层
多谢分享
发表于 2014-7-14 21:52 | 显示全部楼层
不容易啊,终于可以回复下载了。
发表于 2014-7-22 22:57 | 显示全部楼层
谢谢分享
发表于 2014-7-25 10:40 | 显示全部楼层

感谢分享。
发表于 2014-8-13 22:20 | 显示全部楼层
有收藏价值的话是绝对不可以错过的马上下载收走
您需要登录后才可以回帖 登录 | 注册 新浪微博登陆

本版积分规则

手机客户端|小黑屋|Archiver|QQ群|关于我们|联系方式| 荣光无限|沪ICP备09096540号-1     

© 2002-2018 荣光无限 - 张国荣歌影迷网   版权所有

快速回复 返回顶部 返回列表