荣光无限论坛

找回密码
注册

扫一扫,访问微社区

新浪微博登陆

微博账号登录

搜索
热搜: 邀请 充值 邮箱
查看: 6216|回复: 24
收起左侧

2002. 梅艳芳极梦幻演唱会 (DVDRip.x264.DTS) [2.8GB]

[复制链接]
发表于 2012-11-3 23:52 | 显示全部楼层 |阅读模式
梅艳芳极梦幻演唱会  Anita Mui Fantasy Gig 2002

[attach]74076[/attach]

2002年4月6日,一连十场的梅艳芳“极梦幻演唱会”的最后一场。哥哥带病作为梅姐的特别嘉宾出场,两位巨星在台上挥洒自如,一曲《芳华绝代》显现出两人的舞台表现力和十足的默契,而《缘份》更能勾起歌迷的回忆。这是哥哥最后一次与阿梅合唱演出,亦是最后一次出现在红馆的舞台上。哥哥在演艺圈虽然人缘很好,但印象中极少做其他歌手演唱会的嘉宾,不过梅艳芳是个例外,也充分说明了两人的深厚的交情。
压制这个演唱会没少费工费,因为原本是两张DVD,原来粗心之下把A碟文件放到了B碟后面合并到了一起,全部做完后,越看越别扭,对比了一下标准曲目列表才发觉失误。用过的素材习惯于随手删除,因此只能全部重做。最近发布的演唱会,字幕都是本人用软件转制校对或手工制作,做这个字幕也很麻烦,折腾了很久。

曲目列表:

01. Stand By Me
02. 将冰山劈开
03. 爱你便说爱我吧
04. 长藤挂铜铃
05. Medley: 艳舞台 / 烈焰红唇
06. Medley: 凭什么 / 假如我是男人 / 黑夜的豹
07. 蔓珠莎华
08. Oh No! Oh Yes
09. 是这样的
10. 梦姬
11. 烈女
12. 心债
13. 一舞倾情
14. 约会
15. 胭脂扣
16. 床前明月光
17. 心窝已疯
18. 芳华绝代
19. 似水流年
20. 似是故人来
21. 抱紧眼前人
22. 亲密爱人
23. Medley: 孤身走我路 / 夕阳之歌
24. Mddley: 爱将 / 坏女孩 / 淑女 / 妖女
25. 芳华绝代(合唱:张国荣)
26. 缘份(合唱:张国荣)

编码信息:

  1. General
  2. Unique ID : 190097117215058917233894794482353285920 (0x8F035F7F75752333A5271BD7A2C9AB20)
  3. Complete name : 2002.梅艳芳极梦幻演唱会.mkv
  4. Format : Matroska
  5. Format version : Version 1
  6. File size : 2.81 GiB
  7. Duration : 2h 5mn
  8. Overall bit rate : 3 192 Kbps
  9. Movie name : 梅豔芳極夢幻演唱會
  10. Encoded date : UTC 2010-03-03 14:30:00
  11. Writing application : mkvmerge v2.2.0 ('Turn It On Again') built on Mar 4 2008 12:58:26
  12. Writing library : libebml v0.7.7 + libmatroska v0.8.1

  13. Video #1
  14. ID : 1
  15. Format : AVC
  16. Format/Info : Advanced Video Codec
  17. Format profile : Main@L3.0
  18. Format settings, CABAC : Yes
  19. Format settings, ReFrames : 4 frames
  20. Codec ID : V_MPEG4/ISO/AVC
  21. Duration : 2h 5mn
  22. Bit rate : 2 374 Kbps
  23. Width : 720 pixels
  24. Height : 544 pixels
  25. Display aspect ratio : 4:3
  26. Original display aspect ratio : 4:3
  27. Frame rate : 29.970 fps
  28. Color space : YUV
  29. Chroma subsampling : 4:2:0
  30. Bit depth : 8 bits
  31. Scan type : Progressive
  32. Bits/(Pixel*Frame) : 0.202
  33. Stream size : 2.09 GiB (74%)
  34. Writing library : x264 core 116 r2019 9cc407d
  35. Encoding settings : cabac=1 / ref=3 / deblock=1:0:0 / analyse=0x1:0x111 / me=hex / subme=5 / psy=1 / psy_rd=1.00:0.00 / mixed_ref=1 / me_range=16 / chroma_me=1 / trellis=1 / 8x8dct=0 / cqm=0 / deadzone=21,11 / fast_pskip=1 / chroma_qp_offset=0 / threads=3 / sliced_threads=0 / nr=0 / decimate=1 / interlaced=0 / bluray_compat=0 / constrained_intra=0 / bframes=3 / b_pyramid=2 / b_adapt=1 / b_bias=0 / direct=1 / weightb=1 / open_gop=0 / weightp=2 / keyint=250 / keyint_min=25 / scenecut=40 / intra_refresh=0 / rc_lookahead=40 / rc=crf / mbtree=1 / crf=5.0 / qcomp=0.60 / qpmin=0 / qpmax=69 / qpstep=4 / vbv_maxrate=2550 / vbv_bufsize=510 / crf_max=0.0 / nal_hrd=none / ip_ratio=1.40 / aq=1:1.00
  36. Default : Yes
  37. Forced : No

  38. Audio #2
  39. ID : 2
  40. Format : DTS
  41. Format/Info : Digital Theater Systems
  42. Codec ID : A_DTS
  43. Duration : 2h 5mn
  44. Bit rate mode : Constant
  45. Bit rate : 755 Kbps
  46. Channel(s) : 6 channels
  47. Channel positions : Front: L C R, Side: L R, LFE
  48. Sampling rate : 48.0 KHz
  49. Bit depth : 16 bits
  50. Compression mode : Lossy
  51. Stream size : 680 MiB (24%)
  52. Default : Yes
  53. Forced : No

  54. Text #3
  55. ID : 3
  56. Format : UTF-8
  57. Codec ID : S_TEXT/UTF8
  58. Codec ID/Info : UTF-8 Plain Text
  59. Language : Chinese
  60. Default : Yes
  61. Forced : No
复制代码

购买主题 已有 16 人购买  本主题需向作者支付 200 元荣币 才能浏览
发表于 2012-11-4 13:12 | 显示全部楼层
等硬盘买回来再下载。电脑里都装满了
发表于 2013-1-14 14:56 | 显示全部楼层
一定要收藏好资源!
发表于 2013-2-20 19:20 | 显示全部楼层
芳华绝代超赞的!!!!
发表于 2014-7-22 00:13 | 显示全部楼层
网盘下不了,看看站内能不能下载。
发表于 2014-7-25 11:32 | 显示全部楼层

感谢有心人。
发表于 2014-9-9 18:46 | 显示全部楼层
一定好好收藏资源
发表于 2014-9-23 14:22 | 显示全部楼层
梅姐倒数第二场演唱会,想想都伤心
发表于 2014-10-3 20:28 | 显示全部楼层
人云奕云 发表于 2014-9-23 14:22
梅姐倒数第二场演唱会,想想都伤心

这个资源得顶
发表于 2014-12-6 19:49 | 显示全部楼层
找了好久的资源了,多谢楼主分享!
发表于 2014-12-30 00:31 | 显示全部楼层
謝謝分享經典音樂會﹗
发表于 2015-3-26 11:36 | 显示全部楼层
非常感谢 找了好久一直找不到高清的
发表于 2015-7-2 16:02 | 显示全部楼层
好像有这个演唱会的DVD,但不带dts音轨好像
发表于 2015-8-13 09:57 | 显示全部楼层
可惜我的金币不够呀
发表于 2016-3-2 18:21 | 显示全部楼层
我买不起....555
您需要登录后才可以回帖 登录 | 注册 新浪微博登陆

本版积分规则

手机客户端|小黑屋|Archiver|QQ群|关于我们|联系方式| 荣光无限|沪ICP备09096540号-1     

© 2002-2017 荣光无限 - 张国荣歌影迷网   版权所有

快速回复 返回顶部 返回列表