荣光无限论坛

找回密码
注册

微信账号登录

QQ登录

只需一步,快速开始

新浪微博登陆

微博账号登录

搜索
热搜: 邀请 充值 邮箱
查看: 3126|回复: 45
收起左侧

[电影剧集] 1999. 星月童话 (DVDRip.香港三区) [2.42GB]

[复制链接]
发表于 2012-11-6 00:56 | 显示全部楼层 |阅读模式

马上注册,结交更多同道中人,享用更多功能,让你轻松融入哥迷大家庭。

您需要 登录 才可以下载或查看,没有帐号?注册 新浪微博登陆

x
其实本人对哥哥的电影不如音乐那样热衷,不过《星月童话》却是我最喜欢的哥哥电影之一,虽然剧情是有点“童话”,但造型很好,剧情也温馨…… 遗憾的是这部电影距今为止都没有发行蓝光碟。
前段时间抽空把手里收藏的DVD做成了DVDRip,清晰度挺好的,画面是 16:9 的,比 4:3 的画面要大得多。
这个是香港美亚版的,最费劲的是字幕部分。原盘带的字幕,除了简繁中文和英文,还有印尼语、韩语、马来西亚语、泰国语、越南语,后面的完全不懂没法校对,就扔掉了。只做了简体中文和英文部分,英文用软件识别了一下又仔细校对了两遍,中文字幕则是逐字逐句手打的,也仔细校对过。精品的内容,做字幕自然也要力求完美。

Moonlight Express.JPG

中文名:星月童话
外文名:Moonlight Express
出 品:美亚电影制作有限公司
发 行:子弹创作电影有限公司
地 区:中国香港
导 演:李仁港
编 剧:罗志良、陈淑贤、杨倩玲
制片人:一濑隆重、郑振邦、褟嘉珍、Tetsu Kayama
类 型:爱情
主 演:张国荣,常盘贵子,杨紫琼
片 长:102分钟
上 映:1999年4月1日
对 白:粤语、日语、普通话
色 彩:彩色

剧情简介:
青年女子瞳因未婚夫达也死于车祸而伤痛难平,整日活在忧伤的阴影里,直到她在香港遇到与达也相貌相似的青年家宝,内心又激起了美丽的憧憬。家宝是一个优秀的警员,但他的女友正是因为他的工作狂热而受到冷落,最后走向自杀。内心痛苦的家宝唯有以更加狂热的工作来麻醉和折磨自己。两个为爱伤楚的人相遇,于是激起了一段灿烂的爱火 。

资源格式:DVDRip.x264.AC3.DD51.2Audio
画面尺寸:1024*576 (16:9);音频:粤语原声、国语配音,5.1 声道;字幕:简体中文、英文。

国语配音部分,瞳的国语对白都是常盘贵子的原声,比较难得,但其他人的就不是了。
遗憾的是电影原声大碟竟然不是立体声,不知为何,就不提供了。会员可以登录FTP下载MP3版本。
提供下载的视频资源包括: 《星月童话》电影、插曲《找一晚快乐》、《星月童话》制作档案

编码信息:
  1. General
  2. Unique ID                      : 187758618118258081421414549355594098643 (0x8D40FE973AA2B85DA8A9F2D8B421A7D3)
  3. Format                         : Matroska
  4. Format version                 : Version 4 / Version 2
  5. File size                      : 2.42 GiB
  6. Duration                       : 1h 41mn
  7. Overall bit rate               : 3 425 Kbps
  8. Movie name                     : 星月童話 (1999)
  9. Encoded date                   : UTC 2010-02-22 21:41:31
  10. Writing application            : mkvmerge v5.9.0 ('On The Loose') built on Dec  9 2012 15:37:01
  11. Writing library                : libebml v1.3.0 + libmatroska v1.4.0

  12. Video
  13. ID                             : 1
  14. Format                         : AVC
  15. Format/Info                    : Advanced Video Codec
  16. Format profile                 : Main@L3.1
  17. Format settings, CABAC         : Yes
  18. Format settings, ReFrames      : 4 frames
  19. Muxing mode                    : Header stripping
  20. Codec ID                       : V_MPEG4/ISO/AVC
  21. Duration                       : 1h 41mn
  22. Bit rate                       : 2 650 Kbps
  23. Width                          : 1 024 pixels
  24. Height                         : 576 pixels
  25. Display aspect ratio           : 16:9
  26. Frame rate mode                : Constant
  27. Frame rate                     : 29.970 fps
  28. Color space                    : YUV
  29. Chroma subsampling             : 4:2:0
  30. Bit depth                      : 8 bits
  31. Scan type                      : Progressive
  32. Bits/(Pixel*Frame)             : 0.150
  33. Stream size                    : 1.83 GiB (76%)
  34. Writing library                : x264 core 116 r2019 9cc407d
  35. Encoding settings              : cabac=1 / ref=3 / deblock=1:0:0 / analyse=0x1:0x111 / me=hex / subme=6 / psy=1 / psy_rd=1.00:0.00 / mixed_ref=1 / me_range=16 / chroma_me=1 / trellis=1 / 8x8dct=0 / cqm=0 / deadzone=21,11 / fast_pskip=1 / chroma_qp_offset=-2 / threads=3 / sliced_threads=0 / nr=0 / decimate=1 / interlaced=0 / bluray_compat=0 / constrained_intra=0 / bframes=3 / b_pyramid=2 / b_adapt=1 / b_bias=0 / direct=1 / weightb=1 / open_gop=0 / weightp=2 / keyint=250 / keyint_min=25 / scenecut=40 / intra_refresh=0 / rc_lookahead=40 / rc=abr / mbtree=1 / bitrate=2650 / ratetol=1.0 / qcomp=0.60 / qpmin=0 / qpmax=69 / qpstep=4 / vbv_maxrate=3000 / vbv_bufsize=600 / nal_hrd=none / ip_ratio=1.40 / aq=1:1.00
  36. Default                        : Yes
  37. Forced                         : No

  38. Audio #1
  39. ID                             : 2
  40. Format                         : AC-3
  41. Format/Info                    : Audio Coding 3
  42. Mode extension                 : CM (complete main)
  43. Format settings, Endianness    : Big
  44. Muxing mode                    : Header stripping
  45. Codec ID                       : A_AC3
  46. Duration                       : 1h 41mn
  47. Bit rate mode                  : Constant
  48. Bit rate                       : 384 Kbps
  49. Channel(s)                     : 6 channels
  50. Channel positions              : Front: L C R, Side: L R, LFE
  51. Sampling rate                  : 48.0 KHz
  52. Bit depth                      : 16 bits
  53. Compression mode               : Lossy
  54. Stream size                    : 278 MiB (11%)
  55. Title                          : 粤语
  56. Language                       : Chinese
  57. Default                        : Yes
  58. Forced                         : No

  59. Audio #2
  60. ID                             : 3
  61. Format                         : AC-3
  62. Format/Info                    : Audio Coding 3
  63. Mode extension                 : CM (complete main)
  64. Format settings, Endianness    : Big
  65. Muxing mode                    : Header stripping
  66. Codec ID                       : A_AC3
  67. Duration                       : 1h 41mn
  68. Bit rate mode                  : Constant
  69. Bit rate                       : 384 Kbps
  70. Channel(s)                     : 6 channels
  71. Channel positions              : Front: L C R, Side: L R, LFE
  72. Sampling rate                  : 48.0 KHz
  73. Bit depth                      : 16 bits
  74. Compression mode               : Lossy
  75. Stream size                    : 278 MiB (11%)
  76. Title                          : 国语
  77. Language                       : Chinese
  78. Default                        : No
  79. Forced                         : No

  80. Text #1
  81. ID                             : 4
  82. Format                         : UTF-8
  83. Codec ID                       : S_TEXT/UTF8
  84. Codec ID/Info                  : UTF-8 Plain Text
  85. Language                       : Chinese
  86. Default                        : Yes
  87. Forced                         : No

  88. Text #2
  89. ID                             : 5
  90. Format                         : UTF-8
  91. Codec ID                       : S_TEXT/UTF8
  92. Codec ID/Info                  : UTF-8 Plain Text
  93. Language                       : English
  94. Default                        : No
  95. Forced                         : No

  96. Text #3
  97. ID                             : 6
  98. Format                         : VobSub
  99. Muxing mode                    : zlib
  100. Codec ID                       : S_VOBSUB
  101. Codec ID/Info                  : The same subtitle format used on DVDs
  102. Title                          : 繁体中文
  103. Language                       : Chinese
  104. Default                        : No
  105. Forced                         : No

  106. Text #4
  107. ID                             : 7
  108. Format                         : VobSub
  109. Muxing mode                    : zlib
  110. Codec ID                       : S_VOBSUB
  111. Codec ID/Info                  : The same subtitle format used on DVDs
  112. Title                          : English
  113. Language                       : English
  114. Default                        : No
  115. Forced                         : No

  116. Text #5
  117. ID                             : 8
  118. Format                         : VobSub
  119. Muxing mode                    : zlib
  120. Codec ID                       : S_VOBSUB
  121. Codec ID/Info                  : The same subtitle format used on DVDs
  122. Title                          : 简体中文
  123. Language                       : Chinese
  124. Default                        : No
  125. Forced                         : No

  126. Text #6
  127. ID                             : 9
  128. Format                         : VobSub
  129. Muxing mode                    : zlib
  130. Codec ID                       : S_VOBSUB
  131. Codec ID/Info                  : The same subtitle format used on DVDs
  132. Language                       : Korean
  133. Default                        : No
  134. Forced                         : No

  135. Text #7
  136. ID                             : 10
  137. Format                         : VobSub
  138. Muxing mode                    : zlib
  139. Codec ID                       : S_VOBSUB
  140. Codec ID/Info                  : The same subtitle format used on DVDs
  141. Language                       : Malay
  142. Default                        : No
  143. Forced                         : No

  144. Text #8
  145. ID                             : 11
  146. Format                         : VobSub
  147. Muxing mode                    : zlib
  148. Codec ID                       : S_VOBSUB
  149. Codec ID/Info                  : The same subtitle format used on DVDs
  150. Language                       : Thai
  151. Default                        : No
  152. Forced                         : No

  153. Text #9
  154. ID                             : 12
  155. Format                         : VobSub
  156. Muxing mode                    : zlib
  157. Codec ID                       : S_VOBSUB
  158. Codec ID/Info                  : The same subtitle format used on DVDs
  159. Language                       : Vietnamese
  160. Default                        : No
  161. Forced                         : No
复制代码


下载地址:
游客,如果您要查看本帖隐藏内容请回复
 楼主| 发表于 2012-11-6 00:58 | 显示全部楼层
电影DVD + 电影原声大碟CD

IMAG1999.JPG

IMAG2000.jpg

IMAG1996.jpg

IMAG1995.jpg

IMAG1998.jpg

IMAG1997.jpg
发表于 2012-11-19 19:45 | 显示全部楼层
星月童话 我没有看过 对于哥哥 我只回忆90年前的哥哥
发表于 2012-11-27 23:59 | 显示全部楼层
在哥哥的電影中這一部有著不一樣的味道,很喜歡。
发表于 2013-8-26 01:03 | 显示全部楼层
星月童话是我看过的哥哥很有深度的一部片子!和常盘贵子的合演真的蛮棒的!~
发表于 2014-2-11 05:29 | 显示全部楼层
很喜欢这部电影~很温暖的感情
发表于 2014-2-11 20:01 | 显示全部楼层
終於找到一個滿意的版本了。另外,很喜歡哥哥電影的那些製作特輯和花絮!
发表于 2014-9-27 23:39 | 显示全部楼层
無法下載,55555
发表于 2015-2-9 02:54 | 显示全部楼层
谢谢分享!!!
发表于 2015-2-10 13:04 | 显示全部楼层
多谢分享!!
发表于 2015-2-10 13:54 | 显示全部楼层
感谢有心人的分享。
发表于 2015-2-12 19:26 | 显示全部楼层
谢谢分享!
发表于 2015-3-19 00:23 | 显示全部楼层
谢谢分享~~~~~~~~~~~~~~
发表于 2015-3-19 00:30 | 显示全部楼层
很可惜电影主片以及港版花絮的下载链接都失效了。
发表于 2015-4-5 17:06 | 显示全部楼层
以前有张VCD的,找不到了,很想看
您需要登录后才可以回帖 登录 | 注册 新浪微博登陆

本版积分规则

手机客户端|小黑屋|Archiver|QQ群|关于我们|联系方式| 荣光无限|沪ICP备09096540号-1     

© 2002-2017 荣光无限 - 张国荣歌影迷网  版权所有

快速回复 返回顶部 返回列表