荣光无限论坛

找回密码
注册

扫一扫,访问微社区

新浪微博登陆

只需一步, 快速开始

搜索
热搜: 邀请 充值 邮箱
查看: 5254|回复: 11
收起左侧

2003. 梅艳芳经典金曲演唱会 (DVDRip.x264.DTS) [4GB]

[复制链接]
发表于 2012-11-7 19:50 | 显示全部楼层 |阅读模式

梅艳芳经典金曲演唱会 (Anita Classic Moment Live 2003)

[attach]71614[/attach]

演唱会介绍:

2003年11月,在红磡香港体育馆的八个晚上,梅艳芳以最耀目的舞台、令人痴醉的歌声及百变创新的形象令歌迷为之惊叹。万众瞩目下她最后身着嫁衣,深情演绎!
本场演唱会是“百变天后”梅艳芳生前最后的一个演唱会。现场收录了第八场(即最后一场)内的39首歌曲、乐曲与独白。
本场演唱会巨星云集,嘉兵阵容强大,包括张学友、谭咏麟、陈奕迅、陈慧琳、林忆莲、李克勤、林子祥、许志安等,有专碟收录9首嘉宾与梅艳芳合唱的珍藏歌曲。

做这个演唱会的字幕可以说是费了很大的功夫,字幕是逐字敲打的,重新修正了一遍原盘的字幕一些不准确的地方。
嘉宾那一张的字幕还是有一些问题,丢掉了后面的一小部分,抽空了修正后重新上传。

专辑曲目:

DVD 1 (Solo):

01. Overture
02. 梦里共醉
03. 是这样的
04. Classic Moment 1 (Talk)
05. 抱紧眼前人
06. 心肝宝贝
07. 何日 / 李香兰
08. Classic Moment 2
09. 心债
10. 第四十夜
11. 夏日恋人
12. O Sole Mio
13. 亲密爱人
14. Classic Moment 3
15. 爱情的代价
16. 我愿意
17. 似梦迷离 / 今生今世 / 深爱着你
18. 孤身走我路
19. 胭脂扣
20. Classic Moment 4
21. 似是故人来
22. lassic Moment 5
23. 似水流年
24. Sukeyaki
25. 花月佳期
26. Classic Moment 6
27. 夕阳之歌

DVD 2 (嘉宾表演部分):

01. 祝福 - 梅艳芳 / 张学友
02. 有心人 - 梅艳芳 / 陈奕迅
03. 沙滩 - 梅艳芳 / 陶喆
04. 缘份 - 梅艳芳 / 谭咏麟
05. 笑看风云变 - 梅艳芳 / 许志安
06. 最爱是谁 - 梅艳芳 / 林子祥
07. 明星 - 梅艳芳 / 林忆莲
08. 蔓珠莎华 - 梅艳芳 / 陈慧琳
09. 心仍是冷 - 梅艳芳 / 李克勤
10. 不信爱有罪 - 梅艳芳 (特别收录)
11. Classic Moment 7 (特别收录)
12. 珍惜再会时 - 梅艳芳 (特别收录) (演唱会花絮)

编码信息:

DVD 1:
  1. General
  2. Unique ID : 205622732894749066652481454610267516036 (0x9AB17F734932205CA2DDDAD9C1682C84)
  3. Complete name : 梅艳芳经典金曲演唱会D1.mkv
  4. Format : Matroska
  5. Format version : Version 1
  6. File size : 2.40 GiB
  7. Duration : 1h 31mn
  8. Overall bit rate : 3 765 Kbps
  9. Movie name : 梅豔芳經典金曲演唱會
  10. Encoded date : UTC 2008-11-15 16:33:30
  11. Writing application : mkvmerge v2.2.0 ('Turn It On Again') built on Mar 4 2008 12:58:26
  12. Writing library : libebml v0.7.7 + libmatroska v0.8.1

  13. Video #1
  14. ID : 1
  15. Format : AVC
  16. Format/Info : Advanced Video Codec
  17. Format profile : Main@L3.0
  18. Format settings, CABAC : Yes
  19. Format settings, ReFrames : 4 frames
  20. Codec ID : V_MPEG4/ISO/AVC
  21. Duration : 1h 31mn
  22. Bit rate : 2 181 Kbps
  23. Width : 720 pixels
  24. Height : 544 pixels
  25. Display aspect ratio : 4:3
  26. Original display aspect ratio : 4:3
  27. Frame rate : 29.970 fps
  28. Color space : YUV
  29. Chroma subsampling : 4:2:0
  30. Bit depth : 8 bits
  31. Scan type : Progressive
  32. Bits/(Pixel*Frame) : 0.186
  33. Stream size : 1.39 GiB (58%)
  34. Writing library : x264 core 116 r2019 9cc407d
  35. Encoding settings : cabac=1 / ref=3 / deblock=1:0:0 / analyse=0x1:0x111 / me=hex / subme=5 / psy=1 / psy_rd=1.00:0.00 / mixed_ref=1 / me_range=16 / chroma_me=1 / trellis=1 / 8x8dct=0 / cqm=0 / deadzone=21,11 / fast_pskip=1 / chroma_qp_offset=0 / threads=3 / sliced_threads=0 / nr=0 / decimate=1 / interlaced=0 / bluray_compat=0 / constrained_intra=0 / bframes=3 / b_pyramid=2 / b_adapt=1 / b_bias=0 / direct=1 / weightb=1 / open_gop=0 / weightp=2 / keyint=250 / keyint_min=25 / scenecut=40 / intra_refresh=0 / rc_lookahead=40 / rc=crf / mbtree=1 / crf=6.0 / qcomp=0.60 / qpmin=0 / qpmax=69 / qpstep=4 / vbv_maxrate=2500 / vbv_bufsize=500 / crf_max=0.0 / nal_hrd=none / ip_ratio=1.40 / aq=1:1.00
  36. Default : Yes
  37. Forced : No

  38. Audio #2
  39. ID : 2
  40. Format : DTS
  41. Format/Info : Digital Theater Systems
  42. Format profile : ES
  43. Codec ID : A_DTS
  44. Duration : 1h 31mn
  45. Bit rate mode : Constant
  46. Bit rate : 1 510 Kbps
  47. Channel(s) : 6 channels
  48. Channel positions : Front: L C R, Side: L R, LFE
  49. Sampling rate : 48.0 KHz
  50. Bit depth : 16 bits
  51. Compression mode : Lossy
  52. Stream size : 984 MiB (40%)
  53. Default : Yes
  54. Forced : No

  55. Text #3
  56. ID : 3
  57. Format : UTF-8
  58. Codec ID : S_TEXT/UTF8
  59. Codec ID/Info : UTF-8 Plain Text
  60. Language : Chinese
  61. Default : Yes
  62. Forced : No
复制代码
DVD2 :
  1. General
  2. Unique ID : 174333671251269170252399935836236167937 (0x8327719B6BA2FB9EADCE4D0E2D7E3B01)
  3. Complete name : 梅艳芳经典金曲演唱会D2.mkv
  4. Format : Matroska
  5. Format version : Version 1
  6. File size : 1.61 GiB
  7. Duration : 1h 16mn
  8. Overall bit rate : 3 016 Kbps
  9. Movie name : 梅豔芳經典金曲演唱會
  10. Encoded date : UTC 2008-11-15 20:35:30
  11. Writing application : mkvmerge v2.2.0 ('Turn It On Again') built on Mar 4 2008 12:58:26
  12. Writing library : libebml v0.7.7 + libmatroska v0.8.1

  13. Video #1
  14. ID : 1
  15. Format : AVC
  16. Format/Info : Advanced Video Codec
  17. Format profile : Main@L3.0
  18. Format settings, CABAC : Yes
  19. Format settings, ReFrames : 4 frames
  20. Codec ID : V_MPEG4/ISO/AVC
  21. Duration : 1h 16mn
  22. Bit rate : 2 202 Kbps
  23. Width : 720 pixels
  24. Height : 544 pixels
  25. Display aspect ratio : 4:3
  26. Original display aspect ratio : 4:3
  27. Frame rate : 29.970 fps
  28. Color space : YUV
  29. Chroma subsampling : 4:2:0
  30. Bit depth : 8 bits
  31. Scan type : Progressive
  32. Bits/(Pixel*Frame) : 0.188
  33. Stream size : 1.17 GiB (73%)
  34. Writing library : x264 core 116 r2019 9cc407d
  35. Encoding settings : cabac=1 / ref=3 / deblock=1:0:0 / analyse=0x1:0x111 / me=hex / subme=5 / psy=1 / psy_rd=1.00:0.00 / mixed_ref=1 / me_range=16 / chroma_me=1 / trellis=1 / 8x8dct=0 / cqm=0 / deadzone=21,11 / fast_pskip=1 / chroma_qp_offset=0 / threads=3 / sliced_threads=0 / nr=0 / decimate=1 / interlaced=0 / bluray_compat=0 / constrained_intra=0 / bframes=3 / b_pyramid=2 / b_adapt=1 / b_bias=0 / direct=1 / weightb=1 / open_gop=0 / weightp=2 / keyint=250 / keyint_min=25 / scenecut=40 / intra_refresh=0 / rc_lookahead=40 / rc=crf / mbtree=1 / crf=6.0 / qcomp=0.60 / qpmin=0 / qpmax=69 / qpstep=4 / vbv_maxrate=2500 / vbv_bufsize=500 / crf_max=0.0 / nal_hrd=none / ip_ratio=1.40 / aq=1:1.00
  36. Default : Yes
  37. Forced : No

  38. Audio #2
  39. ID : 2
  40. Format : DTS
  41. Format/Info : Digital Theater Systems
  42. Format profile : ES
  43. Codec ID : A_DTS
  44. Duration : 1h 16mn
  45. Bit rate mode : Constant
  46. Bit rate : 755 Kbps
  47. Channel(s) : 6 channels
  48. Channel positions : Front: L C R, Side: L R, LFE
  49. Sampling rate : 48.0 KHz
  50. Bit depth : 16 bits
  51. Compression mode : Lossy
  52. Stream size : 412 MiB (25%)
  53. Default : Yes
  54. Forced : No

  55. Text #3
  56. ID : 3
  57. Format : UTF-8
  58. Codec ID : S_TEXT/UTF8
  59. Codec ID/Info : UTF-8 Plain Text
  60. Language : Chinese
  61. Default : Yes
  62. Forced : No
复制代码


购买主题 已有 10 人购买  本主题需向作者支付 200 元荣币 才能浏览
发表于 2014-9-2 16:14 | 显示全部楼层
很可怜的她
发表于 2014-12-31 04:59 | 显示全部楼层
謝謝分享經典演唱會﹗
发表于 2015-5-11 12:04 | 显示全部楼层
注册又要钱,最低充值又要加5块!还不知道能不能下载。这论坛想钱想疯了。
发表于 2015-6-24 13:52 | 显示全部楼层
支持梅艳芳
发表于 2015-7-2 16:08 | 显示全部楼层
最后的演出。
发表于 2015-8-14 07:37 | 显示全部楼层
我的金币又不够了
发表于 2015-9-25 15:53 | 显示全部楼层
留个小脚印,等金币够了就收了这个
头像被屏蔽
发表于 2017-3-24 04:17 | 显示全部楼层
提示: 作者被禁止或删除 内容自动屏蔽
发表于 2017-3-29 06:21 | 显示全部楼层
非常好,谢谢分享。
发表于 2017-3-31 07:39 | 显示全部楼层
梅艳芳歌真好听。
发表于 2018-6-11 17:17 | 显示全部楼层
管理员别介意啊,我只是想水够200荣光币,万分感谢。
您需要登录后才可以回帖 登录 | 注册 新浪微博登陆

本版积分规则

手机客户端|小黑屋|Archiver|QQ群|关于我们|联系方式| 荣光无限|沪ICP备09096540号-1     

© 2002-2018 荣光无限 - 张国荣歌影迷网   版权所有

快速回复 返回顶部 返回列表