荣光无限论坛

找回密码
注册

扫一扫,访问微社区

新浪微博登陆

微博账号登录

搜索
热搜: 邀请 充值 邮箱
查看: 6366|回复: 22
收起左侧

1996. 陈慧娴96雪映美白演唱会 (LDRip/DVDRip.x264.MP3/DTS) [5GB]

[复制链接]
发表于 2012-11-9 23:50 | 显示全部楼层 |阅读模式

陈慧娴96雪映美白演唱会
DVD卡拉OK版本(DTS 5.1声道音频/全码1509Kbps)+ LD版本外挂过场独白字幕(MP3 立体声音频/192Kbps)


这两个版本比较难取舍,所以都放上来了。区别在于:卡拉OK版本比之LD版本,没有过场的独白,LD版有;OK版有很大的OK字幕,遮住了画面,很不讨人喜欢,而LD版画面本身是没用字幕的,比较干净,使用的是SRT格式的外挂字幕,我只取了原盘自带的过场独白的字幕,校对了一下,歌曲部分没有做;OK版的音频是5.1声道的全码 DTS 格式,且多收录了一首《痴情意外》,而LD版音频只是双声道立体声,把 AC-3 格式转成了MP3格式,码率不变,192Kbps,相对来说有点寒碜。都是采用 Matroska 封装的。

[attach]71616[/attach]

[attach]71617[/attach]

内容介绍:

1980年代至1990年代陈慧娴在香港稳占第二把交椅的著名实力派歌手,仅次于当时的乐坛大姐梅艳芳。90年代中偶像派歌手周慧敏在宝丽金成名,陈慧娴一直待在宝丽金,但备受冷落。1998年,她决定离开宝丽金过档同系的新艺宝时,根据当时香港娱乐版新闻的报道,宝丽金“惊觉”陈慧娴的离开使宝丽金的收入骤减,原因是过往一直把资源投放在周慧敏身上。结果在当年,宝丽金一如既往的透过大量推出陈慧娴的怀旧唱片来赚钱。而在1995年,陈慧娴亦是当时乐坛在坊间调查中是继王菲之后最受欢迎的女歌手。在她活跃的年代,以清晰而充满感情的唱腔著称。她的许多粤语歌曲亦从1990年代后期开始在中国大陆倍受女性歌迷推崇。记得第一次听陈慧娴的是那首《红茶馆》陈慧娴演绎这类伤情的歌曲无疑是具有摧毁性的。她那清纯可人的形象和声音,仿佛永远是邻家那个谁都不忍心去欺负的少女;一旦受到了歌曲中的伤害,的确是让听者分外心疼的。在该演唱会中Priscilla再次演唱了“红茶馆”、“千千阕歌”及“飘雪”等来报答一直追随着她的乐迷们,真是好歌不厌百回听!个人认为这个演唱会前后是陈慧娴声线的最佳时期。

曲目列表:

01. OPENING MEDLEY: 人生何处不相逢 / 玻璃窗的爱 / LOVE ME ONCE AGAIN
02. 花店
03. 我寂寞
04. 不清晰的恋爱
05. 爱是空气
06. 今天夜里总下雨
07. 夜机
08. 去吧
09. 红荼馆
10. 今天的爱人是谁
11. 从来是一对
12. 逝去的诺言
13. 月亮
14. 飘
15. 销魂夜
16. JEALOUSY
17. 月夜的随想
18. 抛抛
19. 傻女
20. 我心不死
21. 与夜抱拥
22. 飘雪
23. 千千阕歌
24. 痴情意外(这首歌LD版本中没收录)
25. 恋恋风尘
26. 心满意足

编码信息:

卡拉OK 版:
  1. General
  2. Unique ID : 213977852914288824889769450032721324777 (0xA0FAA2ABF4971693813F6B5FAE086AE9)
  3. Complete name : 陈慧娴96雪映美白演唱会(DVDRip,Karaoke).mkv
  4. Format : Matroska
  5. Format version : Version 2
  6. File size : 2.82 GiB
  7. Duration : 1h 48mn
  8. Overall bit rate : 3 707 Kbps
  9. Movie name : 雪映美白96陳慧嫻演唱會
  10. Encoded date : UTC 2012-09-06 18:44:18
  11. Writing application : mkvmerge v4.3.0 ('Escape from the Island') 编译于 Sep 5 2010 10:30:51
  12. Writing library : libebml v1.0.0 + libmatroska v1.0.0

  13. Video #1
  14. ID : 1
  15. Format : AVC
  16. Format/Info : Advanced Video Codec
  17. Format profile : Main@L3.0
  18. Format settings, CABAC : Yes
  19. Format settings, ReFrames : 4 frames
  20. Muxing mode : Header stripping
  21. Codec ID : V_MPEG4/ISO/AVC
  22. Duration : 1h 48mn
  23. Bit rate : 2 124 Kbps
  24. Width : 720 pixels
  25. Height : 544 pixels
  26. Display aspect ratio : 4:3
  27. Frame rate : 29.970 fps
  28. Color space : YUV
  29. Chroma subsampling : 4:2:0
  30. Bit depth : 8 bits
  31. Scan type : Progressive
  32. Bits/(Pixel*Frame) : 0.181
  33. Stream size : 1.61 GiB (57%)
  34. Title : PRISCILLA IN CONCERT 96
  35. Writing library : x264 core 114 r1913 5fd3dce
  36. Encoding settings : cabac=1 / ref=3 / deblock=1:0:0 / analyse=0x1:0x111 / me=hex / subme=5 / psy=1 / psy_rd=0.00:0.00 / mixed_ref=1 / me_range=16 / chroma_me=1 / trellis=1 / 8x8dct=0 / cqm=0 / deadzone=21,11 / fast_pskip=1 / chroma_qp_offset=0 / threads=3 / sliced_threads=0 / nr=0 / decimate=1 / interlaced=0 / constrained_intra=0 / bframes=3 / b_pyramid=2 / b_adapt=1 / b_bias=0 / direct=1 / weightb=1 / open_gop=0 / weightp=2 / keyint=250 / keyint_min=25 / scenecut=40 / intra_refresh=0 / rc_lookahead=40 / rc=crf / mbtree=1 / crf=5.0 / qcomp=0.60 / qpmin=0 / qpmax=69 / qpstep=4 / vbv_maxrate=2400 / vbv_bufsize=480 / crf_max=0.0 / nal_hrd=none / ip_ratio=1.40 / aq=1:1.00
  37. Default : Yes
  38. Forced : No

  39. Audio #2
  40. ID : 2
  41. Format : DTS
  42. Format/Info : Digital Theater Systems
  43. Muxing mode : Header stripping
  44. Codec ID : A_DTS
  45. Duration : 1h 48mn
  46. Bit rate mode : Constant
  47. Bit rate : 1 510 Kbps
  48. Channel(s) : 6 channels
  49. Channel positions : Front: L C R, Side: L R, LFE
  50. Sampling rate : 48.0 KHz
  51. Bit depth : 24 bits
  52. Compression mode : Lossy
  53. Stream size : 1.15 GiB (41%)
  54. Language : Chinese
  55. Default : Yes
  56. Forced : No
复制代码
LD 版:
  1. General
  2. Unique ID : 204495602349025588853763006746321800986 (0x99D86B9FB96B5A07B71CBDDD7470CF1A)
  3. Complete name : 陈慧娴96雪映美白演唱会(LDRip).mkv
  4. Format : Matroska
  5. Format version : Version 2
  6. File size : 2.22 GiB
  7. Duration : 1h 55mn
  8. Overall bit rate : 2 741 Kbps
  9. Movie name : 雪映美白96陳慧嫻演唱會
  10. Encoded date : UTC 2012-09-05 15:55:00
  11. Writing application : mkvmerge v5.8.0 ('No Sleep / Pillow') built on Sep 2 2012 15:37:04
  12. Writing library : libebml v1.2.3 + libmatroska v1.3.0

  13. Video #1
  14. ID : 1
  15. Format : AVC
  16. Format/Info : Advanced Video Codec
  17. Format profile : Main@L3.0
  18. Format settings, CABAC : Yes
  19. Format settings, ReFrames : 4 frames
  20. Muxing mode : Header stripping
  21. Codec ID : V_MPEG4/ISO/AVC
  22. Duration : 1h 55mn
  23. Bit rate : 2 494 Kbps
  24. Width : 720 pixels
  25. Height : 544 pixels
  26. Display aspect ratio : 4:3
  27. Frame rate : 29.970 fps
  28. Color space : YUV
  29. Chroma subsampling : 4:2:0
  30. Bit depth : 8 bits
  31. Scan type : Progressive
  32. Bits/(Pixel*Frame) : 0.212
  33. Stream size : 2.02 GiB (91%)
  34. Default : Yes
  35. Forced : No

  36. Audio #2
  37. ID : 2
  38. Format : MPEG Audio
  39. Format version : Version 1
  40. Format profile : Layer 3
  41. Mode : Joint stereo
  42. Muxing mode : Header stripping
  43. Codec ID : A_MPEG/L3
  44. Codec ID/Hint : MP3
  45. Duration : 1h 55mn
  46. Bit rate mode : Constant
  47. Bit rate : 192 Kbps
  48. Channel(s) : 2 channels
  49. Sampling rate : 48.0 KHz
  50. Compression mode : Lossy
  51. Delay relative to video : 11ms
  52. Stream size : 159 MiB (7%)
  53. Default : Yes
  54. Forced : No

  55. Text #3
  56. ID : 3
  57. Format : UTF-8
  58. Codec ID : S_TEXT/UTF8
  59. Codec ID/Info : UTF-8 Plain Text
  60. Language : Chinese
  61. Default : Yes
  62. Forced : No
复制代码

购买主题 已有 19 人购买  本主题需向作者支付 200 元荣币 才能浏览
发表于 2014-9-2 13:57 | 显示全部楼层
漂亮的陈慧娴
发表于 2015-1-1 02:52 | 显示全部楼层
謝謝好歌分享﹗
发表于 2015-1-1 02:54 | 显示全部楼层
謝謝好歌分享﹗
发表于 2015-1-6 00:50 | 显示全部楼层
啦啦啦 下载 看下  不解释了
发表于 2015-1-8 00:49 | 显示全部楼层
謝謝師兄好歌分享﹗
发表于 2015-1-17 17:15 | 显示全部楼层
多谢分享,很喜欢公主,铁杆娴迷
发表于 2015-2-8 04:07 | 显示全部楼层
这个合并..合得好..我喜欢.
发表于 2015-3-11 16:07 | 显示全部楼层
多谢坛主这么好的资源,谢谢
发表于 2015-3-14 19:07 | 显示全部楼层
非常喜欢陈慧娴唱的歌
发表于 2016-2-9 16:54 | 显示全部楼层
好资源 路过看看
发表于 2016-9-10 15:43 | 显示全部楼层
谢谢分享,非常喜欢这个演唱会
发表于 2016-12-11 22:23 | 显示全部楼层
看看这个帖子能不能下载,支持一下先!
发表于 2017-1-24 14:36 | 显示全部楼层
很好的资源啊 攒够了买
头像被屏蔽
发表于 2017-3-23 02:01 | 显示全部楼层
提示: 作者被禁止或删除 内容自动屏蔽
您需要登录后才可以回帖 登录 | 注册 新浪微博登陆

本版积分规则

手机客户端|小黑屋|Archiver|QQ群|关于我们|联系方式| 荣光无限|沪ICP备09096540号-1     

© 2002-2017 荣光无限 - 张国荣歌影迷网   版权所有

快速回复 返回顶部 返回列表