荣光无限论坛

找回密码
注册

扫一扫,访问微社区

新浪微博登陆

只需一步, 快速开始

搜索
热搜: 邀请 充值 邮箱
查看: 1533|回复: 26
收起左侧

[电影剧集] 1996. 金枝玉叶Ⅱ (HDTV.720P) [2.4GB]

[复制链接]
发表于 2012-11-30 16:10 | 显示全部楼层 |阅读模式

马上注册,结交更多同道中人,享用更多功能,让你轻松融入哥迷大家庭。

您需要 登录 才可以下载或查看,没有帐号?注册 新浪微博登陆

x
1996年陈可辛指导香港电影《金枝玉叶》续集。讲述女扮男装的小歌迷林子颖(袁咏仪)混进乐坛,几经波折,终与金牌监顾家明(张国荣)结为一对性别模糊的爱侣。颖受家明的爱情与事业滋润,竟夺得最受欢迎男歌星奖,锋头一时无两,兼且骑虎难下,性别真相,公布无期。传说中的百变巨星方艳梅(梅艳芳)重出江湖,但吃惊的是她和顾家明、林子颖同时发生感情。这个是HDTV版本,来自翡翠高清台。

woman_man.jpg

中文名:金枝玉叶2
英文名:Who's The Woman, Who's The Man
出品时间:1996年
制片地区:中国香港
导演:陈可辛
编剧:林爱华 Oi Wah Lam
类型:喜剧
主演:张国荣,梅艳芳,袁咏仪,陈小春,曾志伟,刘嘉玲,周华健
片长:107分钟
上映时间:1997年6月24日
影片格式:HDTV.x264.AC3.DD51
对白语言:粤语原声
字幕语言:外挂简体中文

剧情简介
  女扮男装的小歌迷林子颖(袁咏仪)混进乐坛,几经波折,终与金牌监顾家明(张国荣)结为一对性别模糊的爱侣。颖受家明的爱情与事业滋润,竟夺得最受欢迎男歌星奖,锋头一时无两,兼且骑虎难下,性别真相,公布无期。传说中的百变巨星方艳梅(梅艳芳)重出江湖,但吃惊的是她和顾家明、林子颖同时发生感情。
  梅艳芳饰演淡出乐坛的歌手方艳梅,周游列国之后,再次踏足香港这片土地,结识了女扮男装的新进歌手林子颖,两人感情要好,似是而非的爱上对方。后来她也知道林子颖的身份,但仍深感庆幸跟她相识,因为她让她知道,这世界上仍有纯真的小白兔。最后她又再拾起行囊,继续其穿州过省的生活。
  评析 《金枝玉叶 2》—— 豪华堆砌的性别迷惑 九四年陈可辛导演的爱情喜剧《金枝玉叶》颇受欢迎,收入二千九百万元,现在第二集除了原班明星张国荣、袁咏仪和陈小春,还增添梅艳芳和李绮虹,上集的刘嘉玲亦有出场,卡士更强。虽然票房难以预测,但这续集在午夜场收得,是暑假后段的重头港片。
  《金枝玉叶 2》拍得十分豪华时髦,简直金碧辉煌,不过很堆砌姿整。如果但求看明星、看靓屋豪宅、漂亮画面和时尚玩意,当可目不暇给,趣趣致致。剧情则不再是上集那种灰姑娘狂想曲,而变成得宠小姐「纵坏」地「玩嘢」。
  袁咏仪在上集是九龙城旧屋少女,是崇拜歌星的「FANS」,为求接近偶像不惜女扮男装参加新秀比赛。到了续集,她本身已经当上歌坛新偶像,还搬入豪宅,与作曲家张国荣共赋同居。 本片比较有趣的地方是袁咏仪得意忘形,不但把「成间百货公司」搬入新居,连死党陈小春也搬来,弄到张国荣烦不胜烦。她大红大紫,反客为主地要养起张国荣,颁奖礼一场特别令张国荣尴尬好笑。 袁咏仪一朝成功,还移情别恋,跟天王歌后梅艳芳燃起同性爱火,痴缠搞基。不过张国荣爱心不变,十分伟大。
  《金枝玉叶 2》比上集进一步大玩同性异性挛挛直直的关系,剧情却更「 戏来做」,难以置信。其实袁咏仪假扮男人扮得不似,明明是女人,上集说她在短期内骗到人尚算勉强成立,但到了续集,无数歌迷仍然当正她是男人,连梅艳芳也以为她是男人,疯狂爆料睇真D的传媒也看不出她是女人,真是「呃鬼食豆腐」。 太多港片不理会起码的可信性了。此片看来想拍同性恋,出现很多基男基女,同时又想迎合异性恋主流观众,希望一举两得。这在市场上或许有效,却难免过於媚俗,挛挛直直得吞吞吐吐,扭扭拧拧得太不爽快。
  那三位主角到底是不是基?实在混淆不清。只能说此片充满「身份之谜」和「性别情意结」,总想什么都有,却不大知道真正要什么,或许代表了时下某种香港式迷惑吧? 较爽趣是陈小春和李绮虹这一对。梅艳芳则气派不错。最有风韵却是客串露面的刘嘉玲。

编码信息:
  1.     General
  2.     Unique ID : 232585087850066224286563081818544914571 (0xAEFA422F13B588B3870D4C399D91C08B)
  3.     Format : Matroska
  4.     Format version : Version 1
  5.     File size : 2.40 GiB
  6.     Duration : 1h 44mn
  7.     Overall bit rate : 3 288 Kbps
  8.     Movie name : 金枝玉葉Ⅱ
  9.     Encoded date : UTC 2011-09-01 17:00:00
  10.     Writing application : mkvmerge v2.2.0 ('Turn It On Again') built on Mar  4 2008 12:58:26
  11.     Writing library : libebml v0.7.7 + libmatroska v0.8.1

  12.     Video #1
  13.     ID : 1
  14.     Format : AVC
  15.     Format/Info : Advanced Video Codec
  16.     Format profile : High@L4.1
  17.     Format settings, CABAC : Yes
  18.     Format settings, ReFrames : 4 frames
  19.     Codec ID : V_MPEG4/ISO/AVC
  20.     Duration : 1h 44mn
  21.     Bit rate : 2 901 Kbps
  22.     Width : 1 280 pixels
  23.     Height : 714 pixels
  24.     Display aspect ratio : 16:9
  25.     Frame rate mode : Constant
  26.     Frame rate : 25.000 fps
  27.     Color space : YUV
  28.     Chroma subsampling : 4:2:0
  29.     Bit depth : 8 bits
  30.     Scan type : Progressive
  31.     Bits/(Pixel*Frame) : 0.127
  32.     Stream size : 2.07 GiB (86%)
  33.     Writing library : x264 core 115 r1995 c1e60b9
  34.     Encoding settings : cabac=1 / ref=3 / deblock=1:0:0 / analyse=0x3:0x113 / me=hex / subme=8 / psy=1 / psy_rd=1.00:0.00 / mixed_ref=1 / me_range=16 / chroma_me=1 / trellis=1 / 8x8dct=1 / cqm=0 / deadzone=21,11 / fast_pskip=1 / chroma_qp_offset=-2 / threads=12 / sliced_threads=0 / nr=0 / decimate=1 / interlaced=0 / bluray_compat=0 / constrained_intra=0 / bframes=3 / b_pyramid=2 / b_adapt=1 / b_bias=0 / direct=1 / weightb=1 / open_gop=0 / weightp=2 / keyint=250 / keyint_min=25 / scenecut=40 / intra_refresh=0 / rc_lookahead=40 / rc=2pass / mbtree=1 / bitrate=2901 / ratetol=1.0 / qcomp=0.60 / qpmin=0 / qpmax=69 / qpstep=4 / cplxblur=20.0 / qblur=0.5 / ip_ratio=1.40 / aq=1:1.00
  35.     Default : Yes
  36.     Forced : No

  37.     Audio #2
  38.     ID : 2
  39.     Format : AC-3
  40.     Format/Info : Audio Coding 3
  41.     Mode extension : CM (complete main)
  42.     Format settings, Endianness : Big
  43.     Codec ID : A_AC3
  44.     Duration : 1h 44mn
  45.     Bit rate mode : Constant
  46.     Bit rate : 384 Kbps
  47.     Channel(s) : 6 channels
  48.     Channel positions : Front: L C R, Side: L R, LFE
  49.     Sampling rate : 48.0 KHz
  50.     Bit depth : 16 bits
  51.     Compression mode : Lossy
  52.     Stream size : 287 MiB (12%)
  53.     Default : Yes
  54.     Forced : No

  55.     Text #3
  56.     ID : 3
  57.     Format : UTF-8
  58.     Codec ID : S_TEXT/UTF8
  59.     Codec ID/Info : UTF-8 Plain Text
  60.     Language : Chinese
  61.     Default : Yes
  62.     Forced : No
复制代码


下载地址:
游客,如果您要查看本帖隐藏内容请回复

发表于 2015-2-10 11:47 | 显示全部楼层
多谢分享!
发表于 2015-2-10 14:00 | 显示全部楼层
感谢有心人的分享。
发表于 2015-2-12 19:37 | 显示全部楼层
谢谢分享!!!
发表于 2015-4-5 17:36 | 显示全部楼层
谢谢分享!
发表于 2015-4-7 10:02 | 显示全部楼层
谢谢楼主分享!
发表于 2015-5-24 12:59 | 显示全部楼层
谢谢分享!!!
发表于 2015-8-10 17:23 | 显示全部楼层
谢谢
发表于 2015-8-14 16:19 | 显示全部楼层
谢谢楼主分享资源
发表于 2015-8-25 22:17 | 显示全部楼层
谢谢分享,有搜集到哥哥的好电影
发表于 2016-4-3 17:06 | 显示全部楼层
谢谢分享,过来下载拉
发表于 2016-4-3 17:09 | 显示全部楼层
这个已经不能下载了,麻烦楼主修复下
发表于 2016-4-27 21:07 | 显示全部楼层
不错哦,谢谢楼主分享!
发表于 2016-5-13 21:29 | 显示全部楼层
记得几个月前电影频道放过 TVT
发表于 2016-6-22 09:27 | 显示全部楼层
多谢分享~!
您需要登录后才可以回帖 登录 | 注册 新浪微博登陆

本版积分规则

手机客户端|小黑屋|Archiver|QQ群|关于我们|联系方式| 荣光无限|沪ICP备09096540号-1     

© 2002-2018 荣光无限 - 张国荣歌影迷网   版权所有

快速回复 返回顶部 返回列表