荣光无限论坛

找回密码
注册

扫一扫,访问微社区

新浪微博登陆

只需一步, 快速开始

搜索
热搜: 邀请 充值 邮箱
查看: 1957|回复: 25
收起左侧

[电影剧集] 1997. 春光乍泄 (BDRip.720P) [2.05GB]

[复制链接]
发表于 2012-12-5 22:55 | 显示全部楼层 |阅读模式

马上注册,结交更多同道中人,享用更多功能,让你轻松融入哥迷大家庭。

您需要 登录 才可以下载或查看,没有帐号?注册 新浪微博登陆

x
“春光乍泄”用来形容春天的漂亮景色突然出现眼前。电影《春光乍泄》是一部由王家卫导演,张国荣 、梁朝伟、张震主演的经典文艺片,曾经入围戛纳国际电影节正式竞赛单元。王家卫凭借该片获得第五十届戛纳国际电影节最佳导演奖。

happy_together.jpg

中文名:春光乍泄
英文名:Happy Together
其它译名:春光乍洩
出品时间:1997年
制片地区:香港
导演:王家卫
编剧:王家卫
制片人:王家卫
类型:剧情,爱情
主演:张国荣,梁朝伟,张震
片长: 96分钟
上映时间:1997年5月30日
分级:Hong Kong:III
对白语言:粤语;汉语普通话;西班牙语
色彩:彩色
imdb编码:tt0118845
影片格式:Blu-ray.x264.AC3.DD51
对白语言:粤语
字幕语言:外挂简体中文字幕

电影剧情:
  黎耀辉与何宝荣是一对同性恋人,两人同往阿根廷游玩。何宝荣从地摊上买回一盏旧台灯,灯罩上的那条瀑布令两人心驰神往,最后两人得知那是伊瓜苏大瀑布(Iguazu),于是相约一起去寻找,却因为迷路逗留在了布宜诺斯艾利斯。
  好景不长,何宝荣嫌黎耀辉太过沉闷,厌倦了这样的生活,在旅途中一言不发地离开了黎耀辉,消失在马路边的旷野中。两人分手后辉在小酒馆做侍者揾钱,而荣则靠勾搭洋人同志维持生活,但两人的心中仍旧彼此牵挂。
  几个月后两人在酒馆无意中碰见了。何宝荣有意与黎耀辉“由头来过”,黎耀辉心中仍惦念着何宝荣,但还是几次三番的拒绝了荣。某夜,浑身是伤的荣找到辉的住处,他把洋人送的手表送给辉而被洋人殴打至头破血流。两人因为这次事件得以重修旧好,双手受伤的荣无法自理,留在辉的租来的小房子里。于是辉每日悉心照顾荣,两人关系尽复,度过了温馨美好的一段时间,辉每日出去工作养家,为荣做饭,还为荣抱不平用酒瓶子怒砸了打伤荣的外国同志,两人在深夜的厨房相拥而舞,这段美好的往事一直留在辉和荣的心中。
  黎耀辉去一家餐馆当厨师,结识了私自出家门周游世界的张宛,为了筹钱也在厨房帮工。荣因为一个电话怀疑辉同小张有染,伤愈后的荣又经常出街,辉怀疑他另有新欢,两人互相不信任,产生了矛盾。争吵之后,荣要离开,辉却不肯把荣的护照还给荣,荣大怒离家出走,从此辉对荣避而不见。辉觉得小张很像年轻时的何宝荣,对他产生了好感,孰料小张却突然要去美洲的最南端,据说是世界的尽头云游,分开之时,两人彼此心里非常难过又难以说出口。小张走后,辉为了筹钱返香港又去了一个屠宰场工作。
  何宝荣找到辉在布宜诺斯艾利斯的旧居, 却发现辉已经离开了,只把那盏瀑布灯和荣的护照留在桌上。荣打扫了房子,在两人曾经共同住过的小屋子里住了下来,只是再没有人会为他做饭、擦身、晒被子,再没有人和他吵架、斗嘴,再没有人满怀醋意地阻止他出街,也再没有人同他在布宜诺斯艾利斯寒冷的深夜在窄小的厨房里,款款起舞,深深相拥。荣修好了破掉的瀑布灯,突然发现瀑布下,站着两个人。荣知道此生再无望找到辉同他讲“由头来过”,抱着辉留下的红色毯子痛哭失声。
  辉的生活失去了方向,迷茫之下他又想起那句话“不如由头来过”。辉于是开着车去寻找那条本应是荣与他共游的瀑布。大瀑布下,辉倍感孤单,决定返回香港。途中他绕道去了台北张宛的家,没有见到小张,却在那里有所领悟,要开开心心地在外面流浪,就要有一个可以回去的地方。

编码信息:
  1.     General
  2.     Unique ID : 247985812935994912969370173168747437662 (0xBA90548DFE98CE74AF7E338252165E5E)
  3.     Format : Matroska
  4.     Format version : Version 1
  5.     File size : 2.05 GiB
  6.     Duration : 1h 37mn
  7.     Overall bit rate : 3 024 Kbps
  8.     Movie name : 春光乍洩
  9.     Encoded date : UTC 2010-06-28 10:13:50
  10.     Writing application : mkvmerge v2.2.0 ('Turn It On Again') built on Mar  4 2008 12:58:26
  11.     Writing library : libebml v0.7.7 + libmatroska v0.8.1

  12.     Video #1
  13.     ID : 1
  14.     Format : AVC
  15.     Format/Info : Advanced Video Codec
  16.     Format profile : High@L4.1
  17.     Format settings, CABAC : Yes
  18.     Format settings, ReFrames : 4 frames
  19.     Codec ID : V_MPEG4/ISO/AVC
  20.     Duration : 1h 37mn
  21.     Bit rate : 2 602 Kbps
  22.     Width : 1 280 pixels
  23.     Height : 690 pixels
  24.     Display aspect ratio : 1.85:1
  25.     Frame rate mode : Constant
  26.     Frame rate : 23.976 fps
  27.     Color space : YUV
  28.     Chroma subsampling : 4:2:0
  29.     Bit depth : 8 bits
  30.     Scan type : Progressive
  31.     Bits/(Pixel*Frame) : 0.123
  32.     Stream size : 1.71 GiB (83%)
  33.     Writing library : x264 core 80 r1376M 3feaec2
  34.     Encoding settings : cabac=1 / ref=5 / deblock=1:-3:-3 / analyse=0x3:0x113 / me=umh / subme=9 / psy=1 / psy_rd=1.0:0.0 / mixed_ref=1 / me_range=32 / chroma_me=1 / trellis=2 / 8x8dct=1 / cqm=0 / deadzone=21,11 / fast_pskip=1 / chroma_qp_offset=-2 / threads=6 / sliced_threads=0 / nr=0 / decimate=1 / mbaff=0 / constrained_intra=0 / bframes=3 / b_pyramid=1 / b_adapt=2 / b_bias=0 / direct=1 / wpredb=1 / wpredp=2 / keyint=250 / keyint_min=25 / scenecut=40 / rc_lookahead=40 / rc=2pass / mbtree=1 / bitrate=2602 / ratetol=1.0 / qcomp=0.60 / qpmin=10 / qpmax=51 / qpstep=4 / cplxblur=20.0 / qblur=0.5 / ip_ratio=1.40 / aq=1:1.00
  35.     Default : Yes
  36.     Forced : No

  37.     Audio #2
  38.     ID : 2
  39.     Format : AC-3
  40.     Format/Info : Audio Coding 3
  41.     Mode extension : CM (complete main)
  42.     Format settings, Endianness : Big
  43.     Codec ID : A_AC3
  44.     Duration : 1h 37mn
  45.     Bit rate mode : Constant
  46.     Bit rate : 448 Kbps
  47.     Channel(s) : 6 channels
  48.     Channel positions : Front: L C R, Side: L R, LFE
  49.     Sampling rate : 48.0 KHz
  50.     Bit depth : 16 bits
  51.     Compression mode : Lossy
  52.     Stream size : 311 MiB (15%)
  53.     Title : 粤语
  54.     Language : Chinese
  55.     Default : Yes
  56.     Forced : No

  57.     Text #3
  58.     ID : 3
  59.     Format : UTF-8
  60.     Codec ID : S_TEXT/UTF8
  61.     Codec ID/Info : UTF-8 Plain Text
  62.     Language : Chinese
  63.     Default : Yes
  64.     Forced : No
复制代码

下载地址:
游客,如果您要查看本帖隐藏内容请回复

发表于 2015-2-10 11:48 | 显示全部楼层
多谢分享!!
发表于 2015-2-17 10:52 | 显示全部楼层
Happy together.电影的最后欢快的歌。
发表于 2015-3-14 11:33 | 显示全部楼层
其实这部电影,大多数人都看不懂何宝荣
发表于 2015-3-22 09:18 | 显示全部楼层
谢谢楼主   
发表于 2015-4-7 10:00 | 显示全部楼层
谢谢楼主分享!
发表于 2015-4-7 22:15 | 显示全部楼层
发表于 2015-6-3 13:21 | 显示全部楼层
已经看了3遍 想永久保留
发表于 2015-8-10 17:19 | 显示全部楼层
最爱的就是这部电影,对何宝荣念念不忘
发表于 2015-8-12 17:16 | 显示全部楼层
谢谢楼主 谢谢分享
发表于 2015-8-29 22:27 | 显示全部楼层
乖乖抱走
发表于 2015-11-23 16:44 | 显示全部楼层
每次看都类目的电影 多谢分享
发表于 2016-4-6 00:05 | 显示全部楼层
谢谢分享,这个一直没有仔细看
发表于 2016-6-28 21:43 | 显示全部楼层
最爱的春光w
发表于 2016-9-3 23:29 | 显示全部楼层
感谢分享~~~~~~~~~~~~~~
您需要登录后才可以回帖 登录 | 注册 新浪微博登陆

本版积分规则

手机客户端|小黑屋|Archiver|QQ群|关于我们|联系方式| 荣光无限|沪ICP备09096540号-1     

© 2002-2018 荣光无限 - 张国荣歌影迷网   版权所有

快速回复 返回顶部 返回列表