荣光无限论坛

找回密码
注册

扫一扫,访问微社区

新浪微博登陆

只需一步, 快速开始

搜索
热搜: 邀请 充值 邮箱
查看: 1638|回复: 27
收起左侧

[电影剧集] 2000. 恋战冲绳 (BDRip.720P) [2.8GB]

[复制链接]
发表于 2013-5-21 00:16 | 显示全部楼层 |阅读模式

马上注册,结交更多同道中人,享用更多功能,让你轻松融入哥迷大家庭。

您需要 登录 才可以下载或查看,没有帐号?注册 新浪微博登陆

x
片名:恋战冲绳
译名:Okinawa Rendez-vous
导演: 陈嘉上
主演: 张国荣、王菲、梁家辉、黎姿、谷德昭、加藤雅也

Okinawa Rendez-vous.JPG

编剧:陈嘉上 陈庆嘉
摄影/像:郑兆强
美术(设计):马光荣
剪辑:陈棋合
造型设计:张叔平
服装(设计):吴里璐
片长:99分钟
出品人:向华强
监制:陈嘉上
执行监制:陈明英
策划:罗国强
地区:香港
类型:爱情
地区:香港
语言:粤语 英语 日语
出品时间: 2000年
上映日期: 2000年7月28日 香港
摄制公司: 仝人制作社
所属分类: 现代/  爱情 / 警匪
制作公司:一百年电影有限公司 [香港]
发行公司:中国星娱乐有限公司 [香港]

剧情介绍:
《恋战冲绳》是由陈嘉上执导,由梁家辉,张国荣,王菲,黎姿,加藤雅也等主演的香港爱情大片,主要讲述了档案部探员阿达(梁家辉饰)休假,与女友 Sandy(黎姿饰)往冲绳岛旅游,期间意外地遇到大盗 Jimmy(张国荣饰),Jimmy 刚刚偷出了警方的证物,与佐藤刚交易,但偏偏佐藤刚的女友 Jenny(王菲饰)拿了用来交易的现金不辞而别,Jenny 为了躲避佐藤刚手下的搜查,偶然遇到了阿达一行人,阿达更是借故向 Jenny 搭讪的故事。

编码信息:
  1.     General
  2.     Unique ID : 188791952543865340390036004874659519820 (0x8E0801E950ACA9E59181559BEC1B5D4C)
  3.     Format : Matroska
  4.     Format version : Version 4 / Version 2
  5.     File size : 2.81 GiB
  6.     Duration : 1h 39mn
  7.     Overall bit rate : 4 056 Kbps
  8.     Movie name : 戀戰沖繩
  9.     Encoded date : UTC 2010-02-22 21:41:31
  10.     Writing application : mkvmerge v5.9.0 ('On The Loose') built on Dec  9 2012 15:37:01
  11.     Writing library : libebml v1.3.0 + libmatroska v1.4.0
  12.     Attachment : Yes / Yes

  13.     Video #1
  14.     ID : 1
  15.     Format : AVC
  16.     Format/Info : Advanced Video Codec
  17.     Format profile : High@L4.1
  18.     Format settings, CABAC : Yes
  19.     Format settings, ReFrames : 5 frames
  20.     Muxing mode : Header stripping
  21.     Codec ID : V_MPEG4/ISO/AVC
  22.     Duration : 1h 39mn
  23.     Bit rate : 3 144 Kbps
  24.     Width : 1 280 pixels
  25.     Height : 720 pixels
  26.     Display aspect ratio : 16:9
  27.     Frame rate mode : Constant
  28.     Frame rate : 24.000 fps
  29.     Color space : YUV
  30.     Chroma subsampling : 4:2:0
  31.     Bit depth : 8 bits
  32.     Scan type : Progressive
  33.     Bits/(Pixel*Frame) : 0.142
  34.     Stream size : 2.13 GiB (76%)
  35.     Writing library : x264 core 116 r2074 2641b9e
  36.     Encoding settings : cabac=1 / ref=5 / deblock=1:-2:-2 / analyse=0x3:0x133 / me=hex / subme=9 / psy=1 / psy_rd=1.00:0.00 / mixed_ref=1 / me_range=16 / chroma_me=1 / trellis=0 / 8x8dct=1 / cqm=0 / deadzone=21,11 / fast_pskip=1 / chroma_qp_offset=-2 / threads=12 / sliced_threads=0 / nr=0 / decimate=1 / interlaced=0 / bluray_compat=0 / constrained_intra=0 / bframes=3 / b_pyramid=2 / b_adapt=1 / b_bias=0 / direct=1 / weightb=0 / open_gop=0 / weightp=2 / keyint=250 / keyint_min=24 / scenecut=40 / intra_refresh=0 / rc=2pass / mbtree=0 / bitrate=3144 / ratetol=1.0 / qcomp=0.60 / qpmin=10 / qpmax=59 / qpstep=4 / cplxblur=20.0 / qblur=0.5 / ip_ratio=1.40 / pb_ratio=1.30 / aq=1:1.00
  37.     Default : Yes
  38.     Forced : No

  39.     Audio #2
  40.     ID : 2
  41.     Format : AC-3
  42.     Format/Info : Audio Coding 3
  43.     Mode extension : CM (complete main)
  44.     Format settings, Endianness : Big
  45.     Muxing mode : Header stripping
  46.     Codec ID : A_AC3
  47.     Duration : 1h 39mn
  48.     Bit rate mode : Constant
  49.     Bit rate : 448 Kbps
  50.     Channel(s) : 6 channels
  51.     Channel positions : Front: L C R, Side: L R, LFE
  52.     Sampling rate : 48.0 KHz
  53.     Bit depth : 16 bits
  54.     Compression mode : Lossy
  55.     Stream size : 318 MiB (11%)
  56.     Title : 粤语原声
  57.     Default : Yes
  58.     Forced : No

  59.     Audio #3
  60.     ID : 3
  61.     Format : AC-3
  62.     Format/Info : Audio Coding 3
  63.     Mode extension : CM (complete main)
  64.     Format settings, Endianness : Big
  65.     Muxing mode : Header stripping
  66.     Codec ID : A_AC3
  67.     Duration : 1h 39mn
  68.     Bit rate mode : Constant
  69.     Bit rate : 448 Kbps
  70.     Channel(s) : 6 channels
  71.     Channel positions : Front: L C R, Side: L R, LFE
  72.     Sampling rate : 48.0 KHz
  73.     Bit depth : 16 bits
  74.     Compression mode : Lossy
  75.     Stream size : 318 MiB (11%)
  76.     Title : 国语配音
  77.     Default : No
  78.     Forced : No

  79.     Text #4
  80.     ID : 4
  81.     Format : UTF-8
  82.     Codec ID : S_TEXT/UTF8
  83.     Codec ID/Info : UTF-8 Plain Text
  84.     Language : Chinese
  85.     Default : Yes
  86.     Forced : No

  87.     Text #5
  88.     ID : 5
  89.     Format : UTF-8
  90.     Codec ID : S_TEXT/UTF8
  91.     Codec ID/Info : UTF-8 Plain Text
  92.     Language : English
  93.     Default : No
  94.     Forced : No
复制代码

下载地址:
游客,如果您要查看本帖隐藏内容请回复

发表于 2015-2-8 21:13 | 显示全部楼层
多谢分享!
发表于 2015-2-9 00:50 | 显示全部楼层
非常感谢分享!!!
发表于 2015-2-13 21:55 | 显示全部楼层
谢谢分享!!!
发表于 2015-3-5 11:37 | 显示全部楼层
轻松愉快的电影
发表于 2015-3-13 22:07 | 显示全部楼层
多谢分享这个版本重来没见过
可以洗版了
发表于 2015-4-5 17:33 | 显示全部楼层
谢谢分享!
发表于 2015-4-5 20:25 | 显示全部楼层
听说这部戏明星超多哦,还是最爱哥哥
发表于 2015-8-10 18:29 | 显示全部楼层
多谢
发表于 2015-8-14 16:27 | 显示全部楼层
谢谢楼主分享
发表于 2015-8-29 22:14 | 显示全部楼层
乖乖抱走!谢谢楼主分享!!
发表于 2016-4-8 20:52 | 显示全部楼层
喜欢喜欢喜欢
发表于 2016-9-4 01:37 | 显示全部楼层
谢谢谢谢谢谢谢谢
发表于 2016-9-21 11:21 | 显示全部楼层
谢谢楼主!
发表于 2016-9-22 12:47 | 显示全部楼层
感谢分享,谢谢
您需要登录后才可以回帖 登录 | 注册 新浪微博登陆

本版积分规则

手机客户端|小黑屋|Archiver|QQ群|关于我们|联系方式| 荣光无限|沪ICP备09096540号-1     

© 2002-2018 荣光无限 - 张国荣歌影迷网   版权所有

快速回复 返回顶部 返回列表