荣光无限论坛

找回密码
注册

扫一扫,访问微社区

新浪微博登陆

微博账号登录

搜索
热搜: 邀请 充值 邮箱
查看: 4112|回复: 105
收起左侧

[演唱现场] 2000.03.02. 张国荣拉阔音乐会 (商台官方单文件完整版) [2.24GB]

[复制链接]
发表于 2015-1-5 13:56 | 显示全部楼层 |阅读模式

马上注册,结交更多同道中人,享用更多功能,让你轻松融入哥迷大家庭。

您需要 登录 才可以下载或查看,没有帐号?注册 新浪微博登陆

x
张国荣拉阔音乐会 903 LIVE Concert(商业电台单文件完整版)

903live.jpg

地点:香港会展中心 (Hong Kong Convention and Exhibition Centre)
日期:2000年3月2日
主办:香港商业电台
格式:x264 + AC3

这是张国荣拉阔音乐会的单文件完整版本,之前发布过商台官方网站公布的分轨版本。单一文件的更具连贯性和便于收藏。
视频画面尺寸 720×544,码率 2893Kbps。画面质量还不错,比86、86和告别完整版好多了,基本持平88、告别的LD官方版,至此算是拉阔演唱会彻底放出了吧。

这个版本是网上找到的,且有其他的热心人添加及校对了字幕,因为源文件是未经压缩的MPEG-2,所以做做搬运工,重新压制为MKV格式。
另外因为自己的强迫症,因不太喜水印之类遮挡主体而剪掉或遮挡了一些画面,还望勿怪。
 
曲目列表:
01. H20/少女心事/第一次/不羁的风
02. 爱慕
03. 为你钟情
04. 侧面+热辣辣
05. 无需要太多
06. 够了+拒绝再玩
07. Stand Up & Twist And Shout
08. 红颜白髮+最爱
09. 这些年来
10. 偷情
11. Everybody
12. 至少还有你
13. 谈情说爱
14. 追
15. 梦死醉生
16. Country Road+春夏秋冬
17. I Honestly Love You
18. 路过蜻蜓
19. 枕头
20. 陪你倒数
21. 心跳呼吸正常
22. 路过蜻蜓 & 左右手

编码信息:
  1. General
  2. Unique ID                      : 174638300858502191247196511163452983220 (0x83621D019FBBC80B90A4883E8CDF87B4)
  3. Format                         : Matroska
  4. Format version                 : Version 4 / Version 2
  5. File size                      : 2.25 GiB
  6. Duration                       : 1h 51mn
  7. Overall bit rate               : 2 893 Kbps
  8. Movie name                     : 張國榮拉闊音樂會 (2000.3.2)
  9. Encoded date                   : UTC 2010-02-22 21:41:31
  10. Writing application            : mkvmerge v5.9.0 ('On The Loose') built on Dec  9 2012 15:37:01
  11. Writing library                : libebml v1.3.0 + libmatroska v1.4.0

  12. Video
  13. ID                             : 1
  14. Format                         : AVC
  15. Format/Info                    : Advanced Video Codec
  16. Format profile                 : Main@L3.0
  17. Format settings, CABAC         : Yes
  18. Format settings, ReFrames      : 4 frames
  19. Muxing mode                    : Header stripping
  20. Codec ID                       : V_MPEG4/ISO/AVC
  21. Duration                       : 1h 51mn
  22. Bit rate                       : 2 650 Kbps
  23. Width                          : 720 pixels
  24. Height                         : 544 pixels
  25. Display aspect ratio           : 4:3
  26. Frame rate mode                : Constant
  27. Frame rate                     : 25.000 fps
  28. Color space                    : YUV
  29. Chroma subsampling             : 4:2:0
  30. Bit depth                      : 8 bits
  31. Scan type                      : Progressive
  32. Bits/(Pixel*Frame)             : 0.271
  33. Stream size                    : 2.01 GiB (89%)
  34. Writing library                : x264 core 116 r2019 9cc407d
  35. Encoding settings              : cabac=1 / ref=3 / deblock=1:0:0 / analyse=0x1:0x111 / me=hex / subme=5 / psy=1 / psy_rd=1.00:0.00 / mixed_ref=1 / me_range=16 / chroma_me=1 / trellis=1 / 8x8dct=0 / cqm=0 / deadzone=21,11 / fast_pskip=1 / chroma_qp_offset=0 / threads=3 / sliced_threads=0 / nr=0 / decimate=1 / interlaced=0 / bluray_compat=0 / constrained_intra=0 / bframes=3 / b_pyramid=2 / b_adapt=1 / b_bias=0 / direct=1 / weightb=1 / open_gop=0 / weightp=2 / keyint=250 / keyint_min=25 / scenecut=40 / intra_refresh=0 / rc_lookahead=40 / rc=abr / mbtree=1 / bitrate=2650 / ratetol=1.0 / qcomp=0.60 / qpmin=0 / qpmax=69 / qpstep=4 / vbv_maxrate=3300 / vbv_bufsize=660 / nal_hrd=none / ip_ratio=1.40 / aq=1:1.00
  36. Default                        : Yes
  37. Forced                         : No

  38. Audio
  39. ID                             : 2
  40. Format                         : AC-3
  41. Format/Info                    : Audio Coding 3
  42. Mode extension                 : CM (complete main)
  43. Format settings, Endianness    : Big
  44. Muxing mode                    : Header stripping
  45. Codec ID                       : A_AC3
  46. Duration                       : 1h 51mn
  47. Bit rate mode                  : Constant
  48. Bit rate                       : 256 Kbps
  49. Channel(s)                     : 2 channels
  50. Channel positions              : Front: L R
  51. Sampling rate                  : 48.0 KHz
  52. Bit depth                      : 16 bits
  53. Compression mode               : Lossy
  54. Stream size                    : 204 MiB (9%)
  55. Language                       : Chinese
  56. Default                        : Yes
  57. Forced                         : No
复制代码

下载地址:
游客,如果您要查看本帖隐藏内容请回复

123

粉丝

317

关注

925

微博
发表于 2015-1-5 13:59 | 显示全部楼层
哥哥。。[花]

2880

粉丝

710

关注

18245

微博
发表于 2015-1-5 14:03 | 显示全部楼层
#安好张国荣# 糯米团子荣[偷笑]
发表于 2015-1-5 14:15 | 显示全部楼层
哇天 好资源!!!!!多谢多谢
发表于 2015-1-5 15:15 | 显示全部楼层
[心][心]
发表于 2015-1-5 15:40 | 显示全部楼层
谢谢谢谢!
发表于 2015-1-5 18:07 | 显示全部楼层
不能下载啊

33

粉丝

180

关注

371

微博
发表于 2015-1-5 19:49 | 显示全部楼层
@不快乐就不说话  快来!肿么下载??
发表于 2015-1-5 20:54 | 显示全部楼层
[心]//@梦影Leslie: //@刘欣男神是张国荣:[爱你]//@慕荣考拉:[心][心]

53

粉丝

210

关注

618

微博
发表于 2015-1-6 05:54 | 显示全部楼层
怎么下载
发表于 2015-1-6 05:57 | 显示全部楼层
谢谢老大 辛苦啦

345

粉丝

164

关注

6777

微博
发表于 2015-1-6 10:35 | 显示全部楼层
[鼓掌][鼓掌][鼓掌]
发表于 2015-1-6 14:15 | 显示全部楼层
多谢分享,拉阔演唱会最爱
发表于 2015-1-6 15:09 | 显示全部楼层
谢谢分享~拉阔如果能像热情那样清晰就更完美啦,更能看清哥哥萌萌哒表情
发表于 2015-1-6 19:18 | 显示全部楼层
看看是什么样的?
您需要登录后才可以回帖 登录 | 注册 新浪微博登陆

本版积分规则

手机客户端|小黑屋|Archiver|QQ群|关于我们|联系方式| 荣光无限|沪ICP备09096540号-1     

© 2002-2017 荣光无限 - 张国荣歌影迷网   版权所有

快速回复 返回顶部 返回列表