荣光无限论坛

找回密码
注册

扫一扫,访问微社区

新浪微博登陆

微博账号登录

搜索
热搜: 邀请 充值 邮箱
查看: 1834|回复: 54
收起左侧

[电影剧集] 1993. 东成西就 (DVDRip.日本二区) [2.54GB]

[复制链接]
发表于 2015-1-8 21:30 | 显示全部楼层 |阅读模式

马上注册,结交更多同道中人,享用更多功能,让你轻松融入哥迷大家庭。

您需要 登录 才可以下载或查看,没有帐号?注册 新浪微博登陆

x
《东成西就》是1993年上映的一部喜剧电影。由刘镇伟执导,张国荣、林青霞、梁朝伟,刘嘉玲、张学友等主演。
这是二区日本 DVD-9 版本,时长113分钟,是完整的,比香港版画面质量好。画面尺寸调整为 1024×768,主画面比例是 16:9,没有剪裁上下黑边。

The_Eagle Shooting_Heroes.jpg

中文名:射雕英雄传之东成西就
英文名:The Eagle Shooting Heroes
出 品:泽东电影公司
地 区:香港
导 演:刘镇伟
编 剧:刘镇伟
制片人:王家卫
类 型:喜剧
主 演:张国荣,林青霞,梁朝伟,刘嘉玲,钟镇涛,叶玉卿,张学友,王祖贤,梁家辉,张曼玉
上 映:1993-02-05
对 白:粤语,普通话

剧情简介:
金轮国奸妃(叶玉卿饰)与表哥欧阳锋(梁朝伟饰)有染,遂先下手为强,杀国王取玉玺,以图霸占江山。久战后,欧阳锋打伤保管玉玺的三公主(林青霞饰),但始终被她逃脱。经胡涂国师(张曼玉饰)查得三 公主下落,欧阳锋即乘火箭金靴追赶,却误脱落一靴插死刚出关的王重阳(钟镇涛饰),三公主适逢路过,王恳求她找其师弟周伯通(刘嘉玲饰)代为报仇。三公主得九宫真人指点,并由真人徒弟黄药师(张国荣饰)陪同往取九阴真经,以复国报仇;却惹来小师妹(王祖贤饰)妒忌。
二人取经失败,在大东客栈与段王爷(梁家辉饰)相遇,原来段王爷与三公主自幼谊亲,但他乃罗汉托世,要断绝情爱,并找得真心人才能成仙。其后,周伯通赶来,误以为三公主杀其师兄,后因练“三花聚顶”走火入魔,神志不清,三公主假扮成王重阳,使得周伯通重新振作起来,继续寻找凶手。段王爷发现黄药师乃梦寐以寻的真心人,最后假扮三公主引东邪说声“我爱你”而得偿所愿。一群人在丹霞山上交手后,欧阳锋得到了九阴真经回国修炼,大家在国师的带领下与其决此一战,最后在已成仙的段王爷帮助下,打败了欧阳锋。

编码信息:
  1. General
  2. Unique ID                      : 170513232805294884473499501301262521785 (0x8047A772ED58D60787557B5EF0DD15B9)
  3. Format                         : Matroska
  4. Format version                 : Version 4 / Version 2
  5. File size                      : 2.55 GiB
  6. Duration                       : 1h 52mn
  7. Overall bit rate               : 3 230 Kbps
  8. Movie name                     : 東成西就 (1993)
  9. Encoded date                   : UTC 2010-02-22 21:41:31
  10. Writing application            : mkvmerge v5.9.0 ('On The Loose') built on Dec  9 2012 15:37:01
  11. Writing library                : libebml v1.3.0 + libmatroska v1.4.0

  12. Video
  13. ID                             : 1
  14. Format                         : AVC
  15. Format/Info                    : Advanced Video Codec
  16. Format profile                 : Main@L3.1
  17. Format settings, CABAC         : Yes
  18. Format settings, ReFrames      : 4 frames
  19. Muxing mode                    : Header stripping
  20. Codec ID                       : V_MPEG4/ISO/AVC
  21. Duration                       : 1h 52mn
  22. Bit rate                       : 2 660 Kbps
  23. Width                          : 1 024 pixels
  24. Height                         : 768 pixels
  25. Display aspect ratio           : 4:3
  26. Frame rate mode                : Constant
  27. Frame rate                     : 29.970 fps
  28. Color space                    : YUV
  29. Chroma subsampling             : 4:2:0
  30. Bit depth                      : 8 bits
  31. Scan type                      : Progressive
  32. Bits/(Pixel*Frame)             : 0.113
  33. Stream size                    : 2.04 GiB (80%)
  34. Writing library                : x264 core 116 r2019 9cc407d
  35. Encoding settings              : cabac=1 / ref=3 / deblock=1:0:0 / analyse=0x1:0x111 / me=hex / subme=6 / psy=1 / psy_rd=1.00:0.00 / mixed_ref=1 / me_range=16 / chroma_me=1 / trellis=1 / 8x8dct=0 / cqm=0 / deadzone=21,11 / fast_pskip=1 / chroma_qp_offset=-2 / threads=3 / sliced_threads=0 / nr=0 / decimate=1 / interlaced=0 / bluray_compat=0 / constrained_intra=0 / bframes=3 / b_pyramid=2 / b_adapt=1 / b_bias=0 / direct=1 / weightb=1 / open_gop=0 / weightp=2 / keyint=250 / keyint_min=25 / scenecut=40 / intra_refresh=0 / rc_lookahead=40 / rc=abr / mbtree=1 / bitrate=2660 / ratetol=1.0 / qcomp=0.60 / qpmin=0 / qpmax=69 / qpstep=4 / vbv_maxrate=3000 / vbv_bufsize=600 / nal_hrd=none / ip_ratio=1.40 / aq=1:1.00
  36. Default                        : Yes
  37. Forced                         : No

  38. Audio #1
  39. ID                             : 2
  40. Format                         : AC-3
  41. Format/Info                    : Audio Coding 3
  42. Mode extension                 : CM (complete main)
  43. Format settings, Endianness    : Big
  44. Muxing mode                    : Header stripping
  45. Codec ID                       : A_AC3
  46. Duration                       : 1h 52mn
  47. Bit rate mode                  : Constant
  48. Bit rate                       : 192 Kbps
  49. Channel(s)                     : 2 channels
  50. Channel positions              : Front: L R
  51. Sampling rate                  : 48.0 KHz
  52. Bit depth                      : 16 bits
  53. Compression mode               : Lossy
  54. Stream size                    : 155 MiB (6%)
  55. Title                          : 国语
  56. Language                       : Chinese
  57. Default                        : Yes
  58. Forced                         : No

  59. Audio #2
  60. ID                             : 3
  61. Format                         : AC-3
  62. Format/Info                    : Audio Coding 3
  63. Mode extension                 : CM (complete main)
  64. Format settings, Endianness    : Big
  65. Muxing mode                    : Header stripping
  66. Codec ID                       : A_AC3
  67. Duration                       : 1h 52mn
  68. Bit rate mode                  : Constant
  69. Bit rate                       : 384 Kbps
  70. Channel(s)                     : 2 channels
  71. Channel positions              : Front: L R
  72. Sampling rate                  : 48.0 KHz
  73. Bit depth                      : 16 bits
  74. Compression mode               : Lossy
  75. Stream size                    : 310 MiB (12%)
  76. Title                          : 粤语
  77. Language                       : Chinese
  78. Default                        : No
  79. Forced                         : No

  80. Text
  81. ID                             : 4
  82. Format                         : UTF-8
  83. Codec ID                       : S_TEXT/UTF8
  84. Codec ID/Info                  : UTF-8 Plain Text
  85. Language                       : Chinese
  86. Default                        : Yes
  87. Forced                         : No
复制代码


下载地址:
游客,如果您要查看本帖隐藏内容请回复

346

粉丝

105

关注

706

微博
发表于 2015-1-8 22:14 | 显示全部楼层
为何我没有权力下载。。[傻眼]

341

粉丝

329

关注

4333

微博
发表于 2015-1-8 22:46 | 显示全部楼层
能下载吗?
发表于 2015-1-9 08:38 | 显示全部楼层
站里宝贝大放送啊~谢谢哈哈
发表于 2015-1-9 10:00 | 显示全部楼层
tvb高清版的,感覺也很好,不知道這個咋樣。
发表于 2015-1-9 12:38 | 显示全部楼层
能下载吗?
 楼主| 发表于 2015-1-9 13:02 | 显示全部楼层
夢蝶 发表于 2015-1-9 10:00
tvb高清版的,感覺也很好,不知道這個咋樣。

07年出过一区的KINO重剪修复版,翡翠高清台播的是重新剪辑修复过的版本,内容不一样,少了十分钟(103min)
二区日版的是93年完整原版。所谓修复版大都有重剪的习惯,两者有时确实难以取舍,好在这个日版画面质量还不错。
发表于 2015-1-11 11:04 | 显示全部楼层
偶的电脑太老了,下载后本地播放都卡~只有保存好`留着以后看了~要命
发表于 2015-1-20 14:31 | 显示全部楼层
日二版本应该是目前最好的了。
发表于 2015-1-22 22:12 | 显示全部楼层
电影原声很经典...
发表于 2015-1-25 00:29 | 显示全部楼层
多谢分享!
发表于 2015-1-25 20:21 | 显示全部楼层
感谢!
发表于 2015-2-2 11:14 | 显示全部楼层
以前看的完整版不是很清楚。多谢分享!!
发表于 2015-2-6 15:15 | 显示全部楼层
感谢分享!
发表于 2015-2-9 01:46 | 显示全部楼层
谢谢分享!!!
您需要登录后才可以回帖 登录 | 注册 新浪微博登陆

本版积分规则

手机客户端|小黑屋|Archiver|QQ群|关于我们|联系方式| 荣光无限|沪ICP备09096540号-1     

© 2002-2017 荣光无限 - 张国荣歌影迷网   版权所有

快速回复 返回顶部 返回列表