荣光无限论坛

找回密码
注册

扫一扫,访问微社区

新浪微博登陆

只需一步, 快速开始

搜索
热搜: 邀请 充值 邮箱
查看: 1838|回复: 38
收起左侧

[电影剧集] 1995. 夜半歌声 (DVDRip.香港三区) [2.29GB]

[复制链接]
发表于 2015-1-15 19:21 | 显示全部楼层 |阅读模式

马上注册,结交更多同道中人,享用更多功能,让你轻松融入哥迷大家庭。

您需要 登录 才可以下载或查看,没有帐号?注册 新浪微博登陆

x
《夜半歌声》翻拍自1937年的同名电影,由于仁泰执导,张国荣、吴倩莲、黄磊主演。
电影讲述了宋丹平与富家千金杜云嫣相爱,却遭到杜云嫣父母的反对,宋丹平被毁容后藏在黑暗处用歌声来安慰云嫣。1995年7月22日,《夜半歌声》在香港上映。1996年该片获得了第15届香港电影金像奖最佳美术指导以及最佳服装造型设计奖 。

The_Phantom_Lover.jpg

中文名:夜半歌声
外文名:The Phantom Lover

地 区:中国香港,新加坡
日 期:1994年
导 演:于仁泰
编 剧:黄百鸣,司徒慧焯,于仁泰
类 型:剧情
主 演:张国荣,吴倩莲,黄磊,刘琳,司徒慧焯,刘天池
片 长:100分钟
上 映:1995年7月22日
语 言:广东话、普通话
色 彩:彩色

剧情简介
1926年的北京,青年演员宋丹平(张国荣饰)因主演歌剧迷倒成千上万女性,但对她们他均不动心,单与清纯的富家少女杜云嫣(吴倩莲饰)坠入爱河。然而因为他的戏子身份,两人恋情曝光后遭到杜云嫣父亲的强行阻止,杜云嫣被禁闭在家,许配给某豪门显贵。与该权贵公子的订婚夜宴上,杜云嫣装病离席私会宋丹平,权贵公子发现后妒火中烧,派人毒打过宋丹平后放火焚烧了剧院,杜云嫣自此成为外人眼中的疯妇,而已成废墟的剧院因为每逢月圆之夜会传来虚无缥缈的歌声,被传是宋丹平的鬼魂作祟。
十年后,某个小剧团暂住进被传有鬼的剧院,青年演员韦青(黄磊饰)遇到如幽灵的宋丹平,爱情悲歌随即再次上演。

编码信息:
  1. General
  2. Unique ID                      : 198960544336059704501949379885355917554 (0x95AE6831BB39AFF084EDD611313E60F2)
  3. Format                         : Matroska
  4. Format version                 : Version 4 / Version 2
  5. File size                      : 2.29 GiB
  6. Duration                       : 1h 37mn
  7. Overall bit rate               : 3 342 Kbps
  8. Movie name                     : 夜半歌聲 (1995)
  9. Encoded date                   : UTC 2010-02-22 21:41:31
  10. Writing application            : mkvmerge v5.9.0 ('On The Loose') built on Dec  9 2012 15:37:01
  11. Writing library                : libebml v1.3.0 + libmatroska v1.4.0

  12. Video
  13. ID                             : 1
  14. Format                         : AVC
  15. Format/Info                    : Advanced Video Codec
  16. Format profile                 : Main@L3.1
  17. Format settings, CABAC         : Yes
  18. Format settings, ReFrames      : 4 frames
  19. Muxing mode                    : Header stripping
  20. Codec ID                       : V_MPEG4/ISO/AVC
  21. Duration                       : 1h 37mn
  22. Bit rate                       : 2 508 Kbps
  23. Nominal bit rate               : 2 640 Kbps
  24. Width                          : 1 024 pixels
  25. Height                         : 576 pixels
  26. Display aspect ratio           : 16:9
  27. Original display aspect ratio  : 4:3
  28. Frame rate mode                : Constant
  29. Frame rate                     : 25.000 fps
  30. Color space                    : YUV
  31. Chroma subsampling             : 4:2:0
  32. Bit depth                      : 8 bits
  33. Scan type                      : Progressive
  34. Bits/(Pixel*Frame)             : 0.170
  35. Stream size                    : 1.71 GiB (75%)
  36. Writing library                : x264 core 116 r2019 9cc407d
  37. Encoding settings              : cabac=1 / ref=3 / deblock=1:0:0 / analyse=0x1:0x111 / me=hex / subme=6 / psy=1 / psy_rd=1.00:0.00 / mixed_ref=1 / me_range=16 / chroma_me=1 / trellis=1 / 8x8dct=0 / cqm=0 / deadzone=21,11 / fast_pskip=1 / chroma_qp_offset=-2 / threads=6 / sliced_threads=0 / nr=0 / decimate=1 / interlaced=0 / bluray_compat=0 / constrained_intra=0 / bframes=3 / b_pyramid=2 / b_adapt=1 / b_bias=0 / direct=1 / weightb=1 / open_gop=0 / weightp=2 / keyint=250 / keyint_min=25 / scenecut=40 / intra_refresh=0 / rc_lookahead=40 / rc=abr / mbtree=1 / bitrate=2640 / ratetol=1.0 / qcomp=0.60 / qpmin=0 / qpmax=69 / qpstep=4 / vbv_maxrate=3500 / vbv_bufsize=700 / nal_hrd=none / ip_ratio=1.40 / aq=1:1.00
  38. Default                        : Yes
  39. Forced                         : No

  40. Audio #1
  41. ID                             : 2
  42. Format                         : AC-3
  43. Format/Info                    : Audio Coding 3
  44. Mode extension                 : CM (complete main)
  45. Format settings, Endianness    : Big
  46. Muxing mode                    : Header stripping
  47. Codec ID                       : A_AC3
  48. Duration                       : 1h 37mn
  49. Bit rate mode                  : Constant
  50. Bit rate                       : 384 Kbps
  51. Channel(s)                     : 6 channels
  52. Channel positions              : Front: L C R, Side: L R, LFE
  53. Sampling rate                  : 48.0 KHz
  54. Bit depth                      : 16 bits
  55. Compression mode               : Lossy
  56. Stream size                    : 269 MiB (11%)
  57. Title                          : 粤语
  58. Language                       : Chinese
  59. Default                        : No
  60. Forced                         : No

  61. Audio #2
  62. ID                             : 3
  63. Format                         : AC-3
  64. Format/Info                    : Audio Coding 3
  65. Mode extension                 : CM (complete main)
  66. Format settings, Endianness    : Big
  67. Muxing mode                    : Header stripping
  68. Codec ID                       : A_AC3
  69. Duration                       : 1h 37mn
  70. Bit rate mode                  : Constant
  71. Bit rate                       : 384 Kbps
  72. Channel(s)                     : 6 channels
  73. Channel positions              : Front: L C R, Side: L R, LFE
  74. Sampling rate                  : 48.0 KHz
  75. Bit depth                      : 16 bits
  76. Compression mode               : Lossy
  77. Stream size                    : 269 MiB (11%)
  78. Title                          : 国语
  79. Language                       : Chinese
  80. Default                        : No
  81. Forced                         : No

  82. Text #1
  83. ID                             : 4
  84. Format                         : VobSub
  85. Muxing mode                    : zlib
  86. Codec ID                       : S_VOBSUB
  87. Codec ID/Info                  : The same subtitle format used on DVDs
  88. Title                          : 简体中文
  89. Language                       : Chinese
  90. Default                        : Yes
  91. Forced                         : No

  92. Text #2
  93. ID                             : 5
  94. Format                         : VobSub
  95. Muxing mode                    : zlib
  96. Codec ID                       : S_VOBSUB
  97. Codec ID/Info                  : The same subtitle format used on DVDs
  98. Title                          : 繁体中文
  99. Language                       : Chinese
  100. Default                        : No
  101. Forced                         : No
复制代码

下载地址:
游客,如果您要查看本帖隐藏内容请回复

发表于 2015-1-16 11:35 | 显示全部楼层
老大你最近好勤快[得意地笑] 我还有一个星期放假了就可以干活啦[噢耶]
 楼主| 发表于 2015-1-17 10:06 | 显示全部楼层
回复@靛蓝小孩Neysa:好
发表于 2015-1-20 14:30 | 显示全部楼层
这部戏好一点的资源很难找,感谢分享。
发表于 2015-1-25 20:30 | 显示全部楼层
感谢分享!
发表于 2015-1-27 10:07 | 显示全部楼层
谢谢了~!抱走~收藏!
发表于 2015-1-29 13:03 | 显示全部楼层
感谢分享!
发表于 2015-2-1 09:57 | 显示全部楼层
喜欢你们!
发表于 2015-2-13 21:57 | 显示全部楼层
谢谢分享!!!
发表于 2015-2-20 21:22 | 显示全部楼层
多谢分享好资源!
发表于 2015-3-17 15:33 | 显示全部楼层
谢谢楼主
发表于 2015-3-18 22:35 | 显示全部楼层
谢谢分享~~~~~
发表于 2015-5-16 22:14 | 显示全部楼层
Thank you!
发表于 2015-5-24 13:16 | 显示全部楼层
感谢分享!
发表于 2015-7-4 18:46 | 显示全部楼层
谢谢分享!
您需要登录后才可以回帖 登录 | 注册 新浪微博登陆

本版积分规则

手机客户端|小黑屋|Archiver|QQ群|关于我们|联系方式| 荣光无限|沪ICP备09096540号-1     

© 2002-2018 荣光无限 - 张国荣歌影迷网   版权所有

快速回复 返回顶部 返回列表