荣光无限论坛

找回密码
注册

扫一扫,访问微社区

新浪微博登陆

只需一步, 快速开始

搜索
热搜: 邀请 充值 邮箱
查看: 1925|回复: 50
收起左侧

[电影剧集] 2002. 异度空间 (DVDRip.香港三区初版+澳洲四区修复版) [4.8GB]

[复制链接]
发表于 2015-1-17 21:43 | 显示全部楼层 |阅读模式

马上注册,结交更多同道中人,享用更多功能,让你轻松融入哥迷大家庭。

您需要 登录 才可以下载或查看,没有帐号?注册 新浪微博登陆

x
《异度空间》是罗志良执导的一部惊悚片,由张国荣 、林嘉欣、李子雄主演。
影片讲述了章昕因经常看到灵异幻象,求助心理医师阿占,在这一过程中两人之间产生了爱情,但是一直不信有鬼的阿占最终也遇到了鬼 。2003年,该片成为第12届中国金鸡百花电影节开幕电影。

之所以不用宣传海报,而是用下图,是因多年来始终有哥哥“撞鬼”一说,这是无中生有的无稽之谈,当然也不排除宣传噱头。事实上电影拍摄现场的气氛与剧情完全不同,尤其惊悚片,都是众多工作人员合力造出的效果。制作完成后的作品情节、画面光影与音效配乐等营造的气氛,更多是带动了观众情绪。其实这一点,同影片的最终主题是一致的:所谓见鬼,心魔而已!心理恐怖电影都是站在观众的观感角度上来营造气氛的,这样才更有代入感,令人“感到”恐怖。这同好莱坞式的视觉恐怖不一样,这也是东西电影文化的不同之处。这电影拍摄期间,每每收工哥哥便做东拉着一帮工作人员去宵夜,更是同林嘉欣没少一起吃冰淇淋,别提多开心。偏有那么多人宁愿去相信一个经验丰富的专业演员被电影的惊悚剧情吓到?还有不少影迷选择不观看,表示“会痛”之类,这很搞笑。

Inner_Senses.jpg

中文名:异度空间
外文名:Inner Senses

时 间:2002年
出 品:公司星皓电影公司
地 区:中国香港
导 演:罗志良
编 剧:尔冬升、罗志良、杨倩玲
类 型:悬疑、恐怖、爱情
主 演:张国荣,林嘉欣,李子雄,周嘉玲,徐少强,林尚武
片 长:100分钟
上 映:时间2002年3月28日
对 白:语言粤语、国语
色 彩:彩色
imdb编码:tt0316023

剧情简介:
章昕(林嘉欣饰)得知房东的妻儿死于泥石流后,总会看见她们的鬼魂,令男友无法忍受折磨离她而去,无奈之下,她求助于心理医师阿占(张国荣饰)。阿占清楚知道章昕所见不过是因长久孤闭所生幻觉,开始竭尽全能帮助她,终使其慢慢脱离了种种恐怖的意想。两人在这一过程中渐渐生出感情。
当置身阿占的生活空间时,章昕发现阿占有诸多怪异举动,调查过后,发现他患有严重的精神分裂,一到晚上某时即被幻象所困痛不欲生。为了让爱人回归正常,章昕决定帮助他赶走心里的魔障。
后来一直不信有鬼的阿占最终也遇到了鬼。他中学时的女友因不想和他分手而自杀,在将她的遗物都找出来之后,他又陷入与脑中前女友的鬼魂的无尽纠缠。片尾女鬼要杀他,他在房顶把他对那女鬼的愧疚以及心里的话都说了出来后感动了女鬼,最终女鬼原谅了他。

编码信息:

初版:

  1. General
  2. Unique ID : 170186640918651576853006264688746296045 (0x8008C139C928603981338DB9868DF2ED)
  3. Format : Matroska
  4. Format version : Version 4 / Version 2
  5. File size : 2.40 GiB
  6. Duration : 1h 39mn
  7. Overall bit rate : 3 443 Kbps
  8. Movie name : 異度空間 (2002)
  9. Encoded date : UTC 2010-02-22 21:41:31
  10. Writing application : mkvmerge v5.9.0 ('On The Loose') built on Dec 9 2012 15:37:01
  11. Writing library : libebml v1.3.0 + libmatroska v1.4.0

  12. Video
  13. ID : 1
  14. Format : AVC
  15. Format/Info : Advanced Video Codec
  16. Format profile : Main@L3.1
  17. Format settings, CABAC : Yes
  18. Format settings, ReFrames : 4 frames
  19. Muxing mode : Header stripping
  20. Codec ID : V_MPEG4/ISO/AVC
  21. Duration : 1h 39mn
  22. Bit rate : 2 607 Kbps
  23. Nominal bit rate : 2 760 Kbps
  24. Width : 1 024 pixels
  25. Height : 768 pixels
  26. Display aspect ratio : 4:3
  27. Frame rate mode : Constant
  28. Frame rate : 29.970 fps
  29. Color space : YUV
  30. Chroma subsampling : 4:2:0
  31. Bit depth : 8 bits
  32. Scan type : Progressive
  33. Bits/(Pixel*Frame) : 0.111
  34. Stream size : 1.82 GiB (76%)
  35. Writing library : x264 core 116 r2019 9cc407d
  36. Encoding settings : cabac=1 / ref=3 / deblock=1:0:0 / analyse=0x1:0x111 / me=hex / subme=6 / psy=1 / psy_rd=1.00:0.00 / mixed_ref=1 / me_range=16 / chroma_me=1 / trellis=1 / 8x8dct=0 / cqm=0 / deadzone=21,11 / fast_pskip=1 / chroma_qp_offset=-2 / threads=3 / sliced_threads=0 / nr=0 / decimate=1 / interlaced=0 / bluray_compat=0 / constrained_intra=0 / bframes=3 / b_pyramid=2 / b_adapt=1 / b_bias=0 / direct=1 / weightb=1 / open_gop=0 / weightp=2 / keyint=250 / keyint_min=25 / scenecut=40 / intra_refresh=0 / rc_lookahead=40 / rc=abr / mbtree=1 / bitrate=2760 / ratetol=1.0 / qcomp=0.60 / qpmin=0 / qpmax=69 / qpstep=4 / vbv_maxrate=3000 / vbv_bufsize=600 / nal_hrd=none / ip_ratio=1.40 / aq=1:1.00
  37. Default : Yes
  38. Forced : No

  39. Audio #1
  40. ID : 2
  41. Format : AC-3
  42. Format/Info : Audio Coding 3
  43. Mode extension : CM (complete main)
  44. Format settings, Endianness : Big
  45. Muxing mode : Header stripping
  46. Codec ID : A_AC3
  47. Duration : 1h 39mn
  48. Bit rate mode : Constant
  49. Bit rate : 384 Kbps
  50. Channel(s) : 6 channels
  51. Channel positions : Front: L C R, Side: L R, LFE
  52. Sampling rate : 48.0 KHz
  53. Bit depth : 16 bits
  54. Compression mode : Lossy
  55. Stream size : 275 MiB (11%)
  56. Title : 粤语
  57. Language : Chinese
  58. Default : Yes
  59. Forced : No

  60. Audio #2
  61. ID : 3
  62. Format : AC-3
  63. Format/Info : Audio Coding 3
  64. Mode extension : CM (complete main)
  65. Format settings, Endianness : Big
  66. Muxing mode : Header stripping
  67. Codec ID : A_AC3
  68. Duration : 1h 39mn
  69. Bit rate mode : Constant
  70. Bit rate : 384 Kbps
  71. Channel(s) : 6 channels
  72. Channel positions : Front: L C R, Side: L R, LFE
  73. Sampling rate : 48.0 KHz
  74. Bit depth : 16 bits
  75. Compression mode : Lossy
  76. Stream size : 275 MiB (11%)
  77. Title : 国语
  78. Language : Chinese
  79. Default : No
  80. Forced : No

  81. Text #1
  82. ID : 4
  83. Format : VobSub
  84. Muxing mode : zlib
  85. Codec ID : S_VOBSUB
  86. Codec ID/Info : The same subtitle format used on DVDs
  87. Title : 繁体中文
  88. Language : Chinese
  89. Default : Yes
  90. Forced : No

  91. Text #2
  92. ID : 5
  93. Format : VobSub
  94. Muxing mode : zlib
  95. Codec ID : S_VOBSUB
  96. Codec ID/Info : The same subtitle format used on DVDs
  97. Title : 简体中文
  98. Language : Chinese
  99. Default : No
  100. Forced : No

  101. Text #3
  102. ID : 6
  103. Format : VobSub
  104. Muxing mode : zlib
  105. Codec ID : S_VOBSUB
  106. Codec ID/Info : The same subtitle format used on DVDs
  107. Title : English
  108. Language : English
  109. Default : No
  110. Forced : No
复制代码
澳洲四区 EASTERN EYE 修复版:
  1. General
  2. Unique ID : 205724076296766529340122725574916970698 (0x9AC50410DA01239194DEADD4F13818CA)
  3. Format : Matroska
  4. Format version : Version 4 / Version 2
  5. File size : 2.41 GiB
  6. Duration : 1h 35mn
  7. Overall bit rate : 3 594 Kbps
  8. Movie name : 異度空間 (Inner Senses - 2002)
  9. Encoded date : UTC 2010-02-22 21:41:31
  10. Writing application : mkvmerge v5.9.0 ('On The Loose') built on Dec 9 2012 15:37:01
  11. Writing library : libebml v1.3.0 + libmatroska v1.4.0

  12. Video
  13. ID : 1
  14. Format : AVC
  15. Format/Info : Advanced Video Codec
  16. Format profile : High@L3.1
  17. Format settings, CABAC : Yes
  18. Format settings, ReFrames : 4 frames
  19. Muxing mode : Header stripping
  20. Codec ID : V_MPEG4/ISO/AVC
  21. Duration : 1h 35mn
  22. Bit rate : 3 203 Kbps
  23. Width : 1 068 pixels
  24. Height : 576 pixels
  25. Display aspect ratio : 1.85:1
  26. Frame rate mode : Constant
  27. Frame rate : 25.000 fps
  28. Color space : YUV
  29. Chroma subsampling : 4:2:0
  30. Bit depth : 8 bits
  31. Scan type : Progressive
  32. Bits/(Pixel*Frame) : 0.208
  33. Stream size : 2.10 GiB (87%)
  34. Writing library : x264 core 138 r2358 9e941d1
  35. Encoding settings : cabac=1 / ref=3 / deblock=1:0:0 / analyse=0x3:0x113 / me=hex / subme=7 / psy=1 / psy_rd=1.00:0.00 / mixed_ref=1 / me_range=16 / chroma_me=1 / trellis=1 / 8x8dct=1 / cqm=0 / deadzone=21,11 / fast_pskip=1 / chroma_qp_offset=-2 / threads=3 / lookahead_threads=1 / sliced_threads=0 / nr=0 / decimate=1 / interlaced=0 / bluray_compat=0 / constrained_intra=0 / bframes=3 / b_pyramid=2 / b_adapt=1 / b_bias=0 / direct=1 / weightb=1 / open_gop=0 / weightp=2 / keyint=250 / keyint_min=25 / scenecut=40 / intra_refresh=0 / rc_lookahead=40 / rc=2pass / mbtree=1 / bitrate=3203 / ratetol=1.0 / qcomp=0.60 / qpmin=0 / qpmax=69 / qpstep=4 / cplxblur=20.0 / qblur=0.5 / ip_ratio=1.40 / aq=1:1.00
  36. Default : Yes
  37. Forced : No

  38. Audio #1
  39. ID : 2
  40. Format : AC-3
  41. Format/Info : Audio Coding 3
  42. Mode extension : CM (complete main)
  43. Format settings, Endianness : Big
  44. Muxing mode : Header stripping
  45. Codec ID : A_AC3
  46. Duration : 1h 35mn
  47. Bit rate mode : Constant
  48. Bit rate : 192 Kbps
  49. Channel(s) : 6 channels
  50. Channel positions : Front: L C R, Side: L R, LFE
  51. Sampling rate : 48.0 KHz
  52. Bit depth : 16 bits
  53. Compression mode : Lossy
  54. Stream size : 132 MiB (5%)
  55. Title : 粵語
  56. Language : Chinese
  57. Default : Yes
  58. Forced : No

  59. Audio #2
  60. ID : 3
  61. Format : AC-3
  62. Format/Info : Audio Coding 3
  63. Mode extension : CM (complete main)
  64. Format settings, Endianness : Big
  65. Muxing mode : Header stripping
  66. Codec ID : A_AC3
  67. Duration : 1h 35mn
  68. Bit rate mode : Constant
  69. Bit rate : 192 Kbps
  70. Channel(s) : 2 channels
  71. Channel positions : Front: L R
  72. Sampling rate : 48.0 KHz
  73. Bit depth : 16 bits
  74. Compression mode : Lossy
  75. Stream size : 132 MiB (5%)
  76. Title : 國語
  77. Language : Chinese
  78. Default : No
  79. Forced : No

  80. Text #1
  81. ID : 4
  82. Format : VobSub
  83. Muxing mode : zlib
  84. Codec ID : S_VOBSUB
  85. Codec ID/Info : The same subtitle format used on DVDs
  86. Title : 中文
  87. Language : Chinese
  88. Default : Yes
  89. Forced : No

  90. Text #2
  91. ID : 5
  92. Format : VobSub
  93. Muxing mode : zlib
  94. Codec ID : S_VOBSUB
  95. Codec ID/Info : The same subtitle format used on DVDs
  96. Title : 中文
  97. Language : Chinese
  98. Default : No
  99. Forced : No

  100. Text #3
  101. ID : 6
  102. Format : VobSub
  103. Muxing mode : zlib
  104. Codec ID : S_VOBSUB
  105. Codec ID/Info : The same subtitle format used on DVDs
  106. Title : 英文
  107. Language : English
  108. Default : No
  109. Forced : No
复制代码

下载地址:

游客,如果您要查看本帖隐藏内容请回复

发表于 2015-1-19 23:24 | 显示全部楼层
我最近想找虐决定看这部....之前一个人看过一次居然没被吓坏最后还觉得好温馨。。
发表于 2015-1-19 23:25 | 显示全部楼层
老大,初版跟修复版有什么区别?
发表于 2015-1-20 14:17 | 显示全部楼层
太感谢了,要好好收藏。
发表于 2015-1-22 22:07 | 显示全部楼层
修复版的画质不知道如何.
发表于 2015-1-23 10:28 | 显示全部楼层
谢谢啊~抱走收藏!
发表于 2015-1-23 10:30 | 显示全部楼层
哦对了,请问下~澳洲区的和港版有不同吗?
 楼主| 发表于 2015-1-23 13:27 | 显示全部楼层
澳洲四区的版本是澳大利亚 Eastern Eye 机构发行的《异度空间》修复版本,画面质量更好一些,画面比例 16:9,时长96分钟
香港二区的初版时长是100分钟,比例 4:3(上下带黑边的,主体影片画面比例还是16:9),画质不如澳四修复版。
电影我一般是看过就忘,不大细心,也没注意内容上具体少了什么或有何不同。
发表于 2015-1-25 19:45 | 显示全部楼层
感謝分享
发表于 2015-1-27 18:47 | 显示全部楼层
感谢分享!
发表于 2015-2-6 15:06 | 显示全部楼层
多谢分享!
发表于 2015-2-11 21:55 | 显示全部楼层
谢谢楼主分享!!
发表于 2015-2-14 14:00 | 显示全部楼层
抱走收藏!
发表于 2015-2-20 18:54 | 显示全部楼层
多谢分享好资源~
发表于 2015-3-13 22:13 | 显示全部楼层
谢谢楼主分享,要好好收藏起来
您需要登录后才可以回帖 登录 | 注册 新浪微博登陆

本版积分规则

手机客户端|小黑屋|Archiver|QQ群|关于我们|联系方式| 荣光无限|沪ICP备09096540号-1     

© 2002-2018 荣光无限 - 张国荣歌影迷网   版权所有

快速回复 返回顶部 返回列表