荣光无限论坛

找回密码
注册

扫一扫,访问微社区

新浪微博登陆

只需一步, 快速开始

搜索
热搜: 邀请 充值 邮箱
查看: 2687|回复: 48
收起左侧

[电影剧集] 1994. 东邪西毒 (DVDRip.日本二区) [2.03GB]

[复制链接]
发表于 2015-1-26 20:00 | 显示全部楼层 |阅读模式

马上注册,结交更多同道中人,享用更多功能,让你轻松融入哥迷大家庭。

您需要 登录 才可以下载或查看,没有帐号?注册 新浪微博登陆

x
《东邪西毒》是一部1994年出品的香港武侠电影,改编自金庸小说《射雕英雄传》,由王家卫执导,张国荣、林青霞、梁家辉、张曼玉等主演。
电影讲述了西毒欧阳锋的人生经历以及他和黄药师、大嫂、剑客洪七等人的故事。1995年影片获得第一届香港电影评论学会大奖最佳影片、第51届威尼斯国际影展最佳摄影等奖项。男主角张国荣凭借这部电影获得第一届香港电影评论学会大奖最佳男主角奖。

《东邪西毒》的版本比较多,这个是94年日本二区的完整版,时长近100分钟,画面质量还可以,起码比香港版好,二区法国版画面质量最好但是不完整。终极版的又剪裁改装过了,所以这是“原生”版本里值得收藏的一版。粤语原声和国语配音双音轨,但是没有合适字幕,DVD自带的字幕提取的时候少了一节对不上。因个人时间紧张也懒得做,所以凑合着看吧,王墨镜的电影就需要这种朦朦胧胧似懂非懂的感觉。他东剪西剪,适合酒醉了之后再看。

ashes_of_time.jpg

中文名:东邪西毒
外文名:Ashes of Time
时 间:1994年
出 品:学者电影有限公司
地 区:中国香港
导 演:王家卫
编 剧:王家卫
类 型:情感伦理
主 演:张国荣,林青霞,梁家辉,张曼玉
片 长:99 分钟(日二区94年完整版)
上 映:1994-09-17
分 级:第Ⅰ级
对 白:普通话
色 彩:彩色
imdb编码:tt0109688

主要奖项:
香港电影评论学会大奖最佳影片
香港电影评论学会大奖最佳男主角

剧情简介:
欧阳锋(张国荣饰)在兄长成婚的那天离家出走,因为大嫂(张曼玉饰)是他最爱的女人。他隐居在沙漠小镇,经营着一家旅店,做着为他人寻找杀手的生意。风流剑客黄药师(梁家辉饰)是欧阳锋的好友,每年都要与锋畅饮一次。他既迷恋着好友的老婆桃花(刘嘉玲饰),也暗恋欧阳锋的嫂子。慕容燕(林青霞)因为黄药师酒后的一句话深深爱上了黄药师,却因为得不到爱人的真心而伤心欲绝,她将自己幻想成慕容嫣请求欧阳锋杀死黄药师,却始终下不了狠心。盲武士(梁朝伟饰)是桃花的丈夫,因为知道妻子心中恋着别人而浪迹天涯,他一心只想在失明前再见到妻子一面,却最终为马贼所杀。剑客洪七(张学友)为孤女(杨采妮饰)杀死仇人却只得到一个鸡蛋,最后他带着老婆一起去闯荡江湖,洪七让欧阳锋明白原来所有事情都可以这么简单。桃花得知丈夫身亡的消息后,永远离开了黄药师。大嫂病死前托黄药师带给欧阳锋一坛“醉生梦死”酒,黄药师和欧阳锋一同喝下“醉生梦死”,黄药师忘却了一切,而欧阳锋却记得更加清晰。

编码信息:
  1. General
  2. Unique ID                      : 219972579449933676106235077002553520729 (0xA57D2D8260F9AF8AAA8C4C826AF8F259)
  3. Format                         : Matroska
  4. Format version                 : Version 4 / Version 2
  5. File size                      : 2.03 GiB
  6. Duration                       : 1h 38mn
  7. Overall bit rate               : 2 965 Kbps
  8. Movie name                     : 東邪西毒 (1994)
  9. Encoded date                   : UTC 2010-02-22 21:41:31
  10. Writing application            : mkvmerge v5.9.0 ('On The Loose') built on Dec  9 2012 15:37:01
  11. Writing library                : libebml v1.3.0 + libmatroska v1.4.0

  12. Video
  13. ID                             : 1
  14. Format                         : AVC
  15. Format/Info                    : Advanced Video Codec
  16. Format profile                 : Main@L3.1
  17. Format settings, CABAC         : Yes
  18. Format settings, ReFrames      : 4 frames
  19. Muxing mode                    : Header stripping
  20. Codec ID                       : V_MPEG4/ISO/AVC
  21. Bit rate                       : 2 600 Kbps
  22. Width                          : 1 024 pixels
  23. Height                         : 576 pixels
  24. Display aspect ratio           : 16:9
  25. Original display aspect ratio  : 16:9
  26. Frame rate mode                : Variable
  27. Original frame rate            : 29.970 fps
  28. Color space                    : YUV
  29. Chroma subsampling             : 4:2:0
  30. Bit depth                      : 8 bits
  31. Scan type                      : Progressive
  32. Bits/(Pixel*Frame)             : 0.147
  33. Writing library                : x264 core 116 r2019 9cc407d
  34. Encoding settings              : cabac=1 / ref=3 / deblock=1:0:0 / analyse=0x1:0x111 / me=hex / subme=6 / psy=1 / psy_rd=1.00:0.00 / mixed_ref=1 / me_range=16 / chroma_me=1 / trellis=1 / 8x8dct=0 / cqm=0 / deadzone=21,11 / fast_pskip=1 / chroma_qp_offset=-2 / threads=3 / sliced_threads=0 / nr=0 / decimate=1 / interlaced=0 / bluray_compat=0 / constrained_intra=0 / bframes=3 / b_pyramid=2 / b_adapt=1 / b_bias=0 / direct=1 / weightb=1 / open_gop=0 / weightp=2 / keyint=250 / keyint_min=25 / scenecut=40 / intra_refresh=0 / rc_lookahead=40 / rc=abr / mbtree=1 / bitrate=2600 / ratetol=1.0 / qcomp=0.60 / qpmin=0 / qpmax=69 / qpstep=4 / vbv_maxrate=3000 / vbv_bufsize=600 / nal_hrd=none / ip_ratio=1.40 / aq=1:1.00
  35. Default                        : Yes
  36. Forced                         : No

  37. Audio #1
  38. ID                             : 2
  39. Format                         : AC-3
  40. Format/Info                    : Audio Coding 3
  41. Mode extension                 : CM (complete main)
  42. Format settings, Endianness    : Big
  43. Muxing mode                    : Header stripping
  44. Codec ID                       : A_AC3
  45. Duration                       : 1h 38mn
  46. Bit rate mode                  : Constant
  47. Bit rate                       : 192 Kbps
  48. Channel(s)                     : 2 channels
  49. Channel positions              : Front: L R
  50. Sampling rate                  : 48.0 KHz
  51. Bit depth                      : 16 bits
  52. Compression mode               : Lossy
  53. Stream size                    : 135 MiB (6%)
  54. Title                          : 粤语
  55. Language                       : Chinese
  56. Default                        : Yes
  57. Forced                         : No

  58. Audio #2
  59. ID                             : 3
  60. Format                         : AC-3
  61. Format/Info                    : Audio Coding 3
  62. Mode extension                 : CM (complete main)
  63. Format settings, Endianness    : Big
  64. Muxing mode                    : Header stripping
  65. Codec ID                       : A_AC3
  66. Duration                       : 1h 38mn
  67. Bit rate mode                  : Constant
  68. Bit rate                       : 192 Kbps
  69. Channel(s)                     : 2 channels
  70. Channel positions              : Front: L R
  71. Sampling rate                  : 48.0 KHz
  72. Bit depth                      : 16 bits
  73. Compression mode               : Lossy
  74. Stream size                    : 135 MiB (6%)
  75. Title                          : 国语
  76. Language                       : Chinese
  77. Default                        : No
  78. Forced                         : No
复制代码

下载地址:
游客,如果您要查看本帖隐藏内容请回复

发表于 2015-1-26 20:16 | 显示全部楼层
峰哥[亲亲]值得一看在看的好电影[心][心]
发表于 2015-1-26 20:45 | 显示全部楼层
这个经典电影超级的心水还有喜欢呢 好给力的楼主是
发表于 2015-1-27 11:50 | 显示全部楼层
I love this Japanese version more than Redux [心]
发表于 2015-1-27 12:56 | 显示全部楼层
太棒了~
发表于 2015-1-27 18:49 | 显示全部楼层
对白普通话?
发表于 2015-1-27 19:37 | 显示全部楼层
94版的不好找呀,赞
发表于 2015-1-28 12:56 | 显示全部楼层
谢谢分享!
发表于 2015-1-28 13:11 | 显示全部楼层
谢谢分享!
发表于 2015-1-31 11:06 | 显示全部楼层
谢谢~俺就想找个完整的~!
发表于 2015-1-31 12:48 | 显示全部楼层
还是原始版本最好,收藏了。
发表于 2015-2-20 21:27 | 显示全部楼层
多谢分享好资源!
发表于 2015-3-5 19:35 | 显示全部楼层
就是要追求好的片源,谢谢了
发表于 2015-3-7 20:10 | 显示全部楼层
如果你再也不能得到一件东西,那就不要忘记。
发表于 2015-3-8 21:37 | 显示全部楼层
终于找到这个了 简直太赞了
您需要登录后才可以回帖 登录 | 注册 新浪微博登陆

本版积分规则

手机客户端|小黑屋|Archiver|QQ群|关于我们|联系方式| 荣光无限|沪ICP备09096540号-1     

© 2002-2018 荣光无限 - 张国荣歌影迷网   版权所有

快速回复 返回顶部 返回列表