荣光无限论坛

找回密码
注册

扫一扫,访问微社区

新浪微博登陆

只需一步, 快速开始

搜索
热搜: 邀请 充值 邮箱
查看: 1533|回复: 33
收起左侧

[电影剧集] 2008. 东邪西毒<终极版> (BDRip.720P) [3.78GB]

[复制链接]
发表于 2015-1-26 20:36 | 显示全部楼层 |阅读模式

马上注册,结交更多同道中人,享用更多功能,让你轻松融入哥迷大家庭。

您需要 登录 才可以下载或查看,没有帐号?注册 新浪微博登陆

x
《东邪西毒:终极版》是由王家卫执导,张国荣、林青霞、张曼玉、梁朝伟、张学友等主演的武侠片。
电影讲述了东邪、西毒、桃花以及一些刀客之间的恩怨情仇。2009年3月27日,《东邪西毒:终极版》在中国内地上映。
终极版用了几年的时间,通过新科技手段把老影片一帧一帧的重新修复过,耗费大量人力物力财力,修复后的影片重新剪辑过,画面呈现出油画版的效果,色彩也比以前更加鲜艳,并重新配乐,与94版相比是另外一种感觉。
影评里有人说终极版的色彩浓艳了、音乐细腻了、画面精致了、感觉却没了,对影片来说都是致命的。个人认为这都是先入为主引发的排斥,而这一点,小说大师金庸做过类似的事,虽精心修正却无法令人满意,电影大师王家卫同样,做不到让所有人已经看过一次原版的再满意一回,毕竟人都不喜欢否定心目中烙印一样的美好记忆。

ashes_of_time_redux.jpg

中文名:东邪西毒<终极版>
外文名:Ashes of Time Redux
时 间:2009年03月27日
地 区:中国香港
导 演:王家卫
编 剧:王家卫
制片人:陈以靳、刘镇伟、Tsai Mu Ho、王家卫、蔡松林
类 型:武侠、文艺、古装
主 演:张国荣,林青霞,张曼玉,梁家辉,梁朝伟,张学友,刘嘉玲,杨采妮
片 长:93分钟
上 映:2009年3月27日
分 级:I
对 白:粤语、普通话
色 彩:彩色

剧情简介:
欧阳锋(张国荣饰)在兄长成婚的那天离家出走,因为嫂子(张曼玉饰)是他最爱的女人。他隐居在沙漠小镇,经营着一家旅店,专为结识往来的过客,也做着为他人寻找杀手的生意。
风流剑客黄药师(梁家辉饰)是欧阳锋的好友,每年都要与锋畅饮一次。他既迷恋着好友的老婆桃花(刘嘉玲饰),也暗恋欧阳锋的嫂子。盲武士(梁朝伟饰)是桃花的丈夫,欧阳锋手下的一名杀手。他浪迹天涯,一心 只想在失明前再见到妻子一面。在欧阳锋的受命下,他一人独战数百名马贼,最终为马贼所杀。
桃花得知丈夫身亡的消息后,永远地离开了黄药师。黄药师为了心爱的女人,喝下名为“醉生梦死”的酒,忘却了一切。慕容燕和慕容嫣是一对面貌相同的兄妹,慕容燕出重金请欧阳锋杀黄药师,而慕容嫣也要求欧阳锋杀慕容燕。实际上他们同是一人。
村姑(杨采妮饰)想聘杀手为弟弟报仇,却遭到欧阳锋的坚决拒绝。初出江湖的洪七(张学友饰)是一名连草鞋都买不起的刀客。他答应了村姑的要求,只身杀光太尉府的刀客,也失去了右手食指。他的报酬只是村姑的一只鸡蛋。欧阳锋的嫂子当年因为无法忍受他的骄傲而故意嫁给他的哥哥。如今,韶华已逝的她即将不久于人世,她终于领悟道:我以为我赢了,其实我输了。
最终,黄药师隐居桃花岛,绰号东邪。洪七接管丐帮,是为北丐。慕容燕/慕容嫣改头换面,练成一代剑侠独孤求败。欧阳锋火烧了小店,返回故乡,人称西毒。

编码信息:
  1. General
  2. Unique ID                      : 250137558916392908061910089422724440132 (0xBC2EBDD28144EF6497677480BDA8A044)
  3. Format                         : Matroska
  4. Format version                 : Version 4 / Version 2
  5. File size                      : 3.79 GiB
  6. Duration                       : 1h 33mn
  7. Overall bit rate               : 5 812 Kbps
  8. Movie name                     : 東邪西毒 <終極版> ASHES OF TIME REDUX 2008
  9. Encoded date                   : UTC 2010-02-22 21:41:31
  10. Writing application            : mkvmerge v5.9.0 ('On The Loose') built on Dec  9 2012 15:37:01
  11. Writing library                : libebml v1.3.0 + libmatroska v1.4.0

  12. Video
  13. ID                             : 1
  14. Format                         : AVC
  15. Format/Info                    : Advanced Video Codec
  16. Format profile                 : High@L4.1
  17. Format settings, CABAC         : Yes
  18. Format settings, ReFrames      : 5 frames
  19. Muxing mode                    : Header stripping
  20. Codec ID                       : V_MPEG4/ISO/AVC
  21. Duration                       : 1h 33mn
  22. Bit rate                       : 5 171 Kbps
  23. Width                          : 1 280 pixels
  24. Height                         : 696 pixels
  25. Display aspect ratio           : 1.85:1
  26. Frame rate mode                : Constant
  27. Frame rate                     : 23.976 fps
  28. Color space                    : YUV
  29. Chroma subsampling             : 4:2:0
  30. Bit depth                      : 8 bits
  31. Scan type                      : Progressive
  32. Bits/(Pixel*Frame)             : 0.242
  33. Stream size                    : 3.30 GiB (87%)
  34. Writing library                : x264 core 66 r1092 60f4cd8
  35. Encoding settings              : cabac=1 / ref=5 / deblock=1:0:0 / analyse=0x3:0x133 / me=umh / subme=7 / psy_rd=1.0:0.0 / mixed_ref=1 / me_range=16 / chroma_me=1 / trellis=1 / 8x8dct=1 / cqm=0 / deadzone=21,11 / chroma_qp_offset=-2 / threads=3 / nr=0 / decimate=1 / mbaff=0 / bframes=3 / b_pyramid=1 / b_adapt=1 / b_bias=0 / direct=1 / wpredb=1 / keyint=240 / keyint_min=24 / scenecut=40(pre) / rc=2pass / bitrate=5171 / ratetol=1.0 / qcomp=0.60 / qpmin=10 / qpmax=51 / qpstep=4 / cplxblur=20.0 / qblur=0.5 / ip_ratio=1.40 / pb_ratio=1.30 / aq=1:1.00
  36. Default                        : Yes
  37. Forced                         : No

  38. Audio #1
  39. ID                             : 2
  40. Format                         : AC-3
  41. Format/Info                    : Audio Coding 3
  42. Mode extension                 : CM (complete main)
  43. Format settings, Endianness    : Big
  44. Muxing mode                    : Header stripping
  45. Codec ID                       : A_AC3
  46. Duration                       : 1h 33mn
  47. Bit rate mode                  : Constant
  48. Bit rate                       : 448 Kbps
  49. Channel(s)                     : 6 channels
  50. Channel positions              : Front: L C R, Side: L R, LFE
  51. Sampling rate                  : 48.0 KHz
  52. Bit depth                      : 16 bits
  53. Compression mode               : Lossy
  54. Stream size                    : 299 MiB (8%)
  55. Title                          : 粤语
  56. Language                       : Chinese
  57. Default                        : Yes
  58. Forced                         : No

  59. Audio #2
  60. ID                             : 3
  61. Format                         : AC-3
  62. Format/Info                    : Audio Coding 3
  63. Mode extension                 : CM (complete main)
  64. Format settings, Endianness    : Big
  65. Muxing mode                    : Header stripping
  66. Codec ID                       : A_AC3
  67. Duration                       : 1h 33mn
  68. Bit rate mode                  : Constant
  69. Bit rate                       : 192 Kbps
  70. Channel(s)                     : 2 channels
  71. Channel positions              : Front: L R
  72. Sampling rate                  : 48.0 KHz
  73. Bit depth                      : 16 bits
  74. Compression mode               : Lossy
  75. Stream size                    : 128 MiB (3%)
  76. Title                          : 国语
  77. Language                       : Chinese
  78. Default                        : No
  79. Forced                         : No

  80. Text #1
  81. ID                             : 4
  82. Format                         : UTF-8
  83. Codec ID                       : S_TEXT/UTF8
  84. Codec ID/Info                  : UTF-8 Plain Text
  85. Title                          : 简体中文
  86. Language                       : Chinese
  87. Default                        : Yes
  88. Forced                         : No

  89. Text #2
  90. ID                             : 5
  91. Format                         : UTF-8
  92. Codec ID                       : S_TEXT/UTF8
  93. Codec ID/Info                  : UTF-8 Plain Text
  94. Title                          : English
  95. Language                       : English
  96. Default                        : No
  97. Forced                         : No
复制代码

下载地址:
游客,如果您要查看本帖隐藏内容请回复


发表于 2015-1-26 20:42 | 显示全部楼层
看到微博上更新资源马上就进来下载啊上传辛苦咯给力
 楼主| 发表于 2015-1-26 20:44 | 显示全部楼层
时间搞错,应为 2008. 东邪西毒<终极版> (BDRip.720P) [3.78GB] 转到微博的标题没法改。
发表于 2015-1-27 12:56 | 显示全部楼层
感谢分享!
发表于 2015-1-27 19:42 | 显示全部楼层
感谢分享
发表于 2015-1-28 13:08 | 显示全部楼层
个人觉得终极版好懂一些。
发表于 2015-2-1 12:15 | 显示全部楼层
终极版啊~谢谢!好好收藏!
发表于 2015-2-3 03:29 | 显示全部楼层
多谢分享!
发表于 2015-2-3 17:54 | 显示全部楼层
前段影展在大银幕看到终极版 色彩真是绚烂美如画 感谢分享
发表于 2015-3-17 00:51 | 显示全部楼层
我以前下的都不行,看了介绍 ,谁真是有心人啊
发表于 2015-4-3 17:53 | 显示全部楼层
感觉色彩确实鲜艳过了,但是依然还是很喜欢,因为看到了更加高清的哥哥
发表于 2015-4-6 22:35 | 显示全部楼层
谢谢楼主分享!
发表于 2015-5-11 10:35 | 显示全部楼层
这是我最喜欢的电影之一
发表于 2015-7-22 16:52 | 显示全部楼层
大爱东邪西毒~
发表于 2015-7-27 18:43 | 显示全部楼层
多谢楼主,上传辛苦了
您需要登录后才可以回帖 登录 | 注册 新浪微博登陆

本版积分规则

手机客户端|小黑屋|Archiver|QQ群|关于我们|联系方式| 荣光无限|沪ICP备09096540号-1     

© 2002-2018 荣光无限 - 张国荣歌影迷网   版权所有

快速回复 返回顶部 返回列表