荣光无限论坛

找回密码
注册

扫一扫,访问微社区

新浪微博登陆

只需一步, 快速开始

搜索
热搜: 邀请 充值 邮箱
查看: 2441|回复: 56
收起左侧

[电影剧集] 1986. 偶然 (LDRip.香港润程LD版) [1.66GB]

[复制链接]
发表于 2015-1-27 16:50 | 显示全部楼层 |阅读模式

马上注册,结交更多同道中人,享用更多功能,让你轻松融入哥迷大家庭。

您需要 登录 才可以下载或查看,没有帐号?注册 新浪微博登陆

x
Last song in Paris.JPG
Last song in Paris 2.JPG

电影名:偶然
英文名:Last song in Paris

导 演:楚原
编 剧:楚原 (Yuen Chor)
主 演:张国荣 / 叶童 / 梅艳芳 / 王祖贤
类 型:剧情 / 爱情
地 区:香港
发 行:香港润程娱乐有限公司(Winson Entertainment Co., Ltd.)
版 本:2LD
上 映:1986-10-04
时 间:90分钟
语 言:粤语
字 幕:中文,英文

剧情简介:
Louie(张国荣 饰)是一名大红大紫的歌星,一次偶然中,他结识了舞蹈演员Anita(梅艳芳 饰),两人一见倾心犹如干柴烈火,结成了一段浪漫又刺激的露水情缘。Louie发现了Anita杰出的歌唱天赋,便顺水推舟将她捧上了乐坛。之后,一个名叫Julia(王祖贤 饰)的女人走进了Louie的生活,漂亮的Julia很快就虏获了Louie的真心,但很快Louie便发现,Julia的身后掩藏了一个惊人的秘密。感情上受到了伤害,Louie离开了茱莉亚流落异国,在那里他遇见了越南女孩阮玉诗(叶童 饰),玉诗的温柔和善良温暖了Louie的心灵。在感情上屡受挫折的Louie这一次是否能够把握难能可贵的真爱呢?

编码信息:
  1. General
  2. Unique ID                      : 170681805983703853215277991423360526247 (0x80681EBF91A92D7983592F2B9F1E67A7)
  3. Format                         : Matroska
  4. Format version                 : Version 4 / Version 2
  5. File size                      : 1.67 GiB
  6. Duration                       : 1h 29mn
  7. Overall bit rate               : 2 669 Kbps
  8. Movie name                     : 偶然 (1986)
  9. Encoded date                   : UTC 2010-02-22 21:41:31
  10. Writing application            : mkvmerge v5.9.0 ('On The Loose') built on Dec  9 2012 15:37:01
  11. Writing library                : libebml v1.3.0 + libmatroska v1.4.0

  12. Video
  13. ID                             : 1
  14. Format                         : AVC
  15. Format/Info                    : Advanced Video Codec
  16. Format profile                 : Main@L3.1
  17. Format settings, CABAC         : Yes
  18. Format settings, ReFrames      : 4 frames
  19. Muxing mode                    : Header stripping
  20. Codec ID                       : V_MPEG4/ISO/AVC
  21. Duration                       : 1h 29mn
  22. Bit rate                       : 2 440 Kbps
  23. Width                          : 960 pixels
  24. Height                         : 720 pixels
  25. Display aspect ratio           : 4:3
  26. Frame rate mode                : Constant
  27. Frame rate                     : 29.970 fps
  28. Color space                    : YUV
  29. Chroma subsampling             : 4:2:0
  30. Bit depth                      : 8 bits
  31. Scan type                      : Progressive
  32. Bits/(Pixel*Frame)             : 0.118
  33. Stream size                    : 1.49 GiB (90%)
  34. Writing library                : x264 core 116 r2019 9cc407d
  35. Encoding settings              : cabac=1 / ref=3 / deblock=1:0:0 / analyse=0x1:0x111 / me=hex / subme=6 / psy=1 / psy_rd=1.00:0.00 / mixed_ref=1 / me_range=16 / chroma_me=1 / trellis=1 / 8x8dct=0 / cqm=0 / deadzone=21,11 / fast_pskip=1 / chroma_qp_offset=-2 / threads=3 / sliced_threads=0 / nr=0 / decimate=1 / interlaced=0 / bluray_compat=0 / constrained_intra=0 / bframes=3 / b_pyramid=2 / b_adapt=1 / b_bias=0 / direct=1 / weightb=1 / open_gop=0 / weightp=2 / keyint=250 / keyint_min=25 / scenecut=40 / intra_refresh=0 / rc_lookahead=40 / rc=abr / mbtree=1 / bitrate=2440 / ratetol=1.0 / qcomp=0.60 / qpmin=0 / qpmax=69 / qpstep=4 / ip_ratio=1.40 / aq=1:1.00
  36. Default                        : Yes
  37. Forced                         : No

  38. Audio
  39. ID                             : 2
  40. Format                         : AC-3
  41. Format/Info                    : Audio Coding 3
  42. Mode extension                 : CM (complete main)
  43. Format settings, Endianness    : Big
  44. Muxing mode                    : Header stripping
  45. Codec ID                       : A_AC3
  46. Duration                       : 1h 29mn
  47. Bit rate mode                  : Constant
  48. Bit rate                       : 224 Kbps
  49. Channel(s)                     : 2 channels
  50. Channel positions              : Front: L R
  51. Sampling rate                  : 48.0 KHz
  52. Bit depth                      : 16 bits
  53. Compression mode               : Lossy
  54. Stream size                    : 143 MiB (8%)
  55. Language                       : Chinese
  56. Default                        : Yes
  57. Forced                         : No
复制代码

下载地址:
游客,如果您要查看本帖隐藏内容请回复
发表于 2015-1-27 19:40 | 显示全部楼层
感谢分享
发表于 2015-1-27 20:58 | 显示全部楼层
好几好经典
发表于 2015-1-28 04:10 | 显示全部楼层
thank you for sharing. The copy I have right now is in really bad quality. wish this one is much better.
发表于 2015-1-28 09:54 | 显示全部楼层
很謝謝了
发表于 2015-1-28 13:06 | 显示全部楼层
谢谢分享!
发表于 2015-1-28 19:21 | 显示全部楼层
这部电影好难找到DVD~谢谢分享!
发表于 2015-1-29 09:52 | 显示全部楼层
我一直找不到的好资源,这阵容~一影帝佩四影后~即使是爱情剧,也是有看头的~
发表于 2015-1-29 16:53 | 显示全部楼层
多谢分享!
发表于 2015-1-31 12:50 | 显示全部楼层
非常棒的一个版本,感谢分享。
发表于 2015-2-4 03:45 | 显示全部楼层
感谢分享!
发表于 2015-2-9 01:38 | 显示全部楼层
谢谢分享!!!
发表于 2015-2-13 21:54 | 显示全部楼层
谢谢分享!!!
发表于 2015-2-17 14:11 | 显示全部楼层
好難搵到,多謝!
发表于 2015-2-17 23:16 | 显示全部楼层
感谢分享。羊年大吉。
您需要登录后才可以回帖 登录 | 注册 新浪微博登陆

本版积分规则

手机客户端|小黑屋|Archiver|QQ群|关于我们|联系方式| 荣光无限|沪ICP备09096540号-1     

© 2002-2018 荣光无限 - 张国荣歌影迷网   版权所有

快速回复 返回顶部 返回列表