荣光无限论坛

找回密码
注册

扫一扫,访问微社区

新浪微博登陆

微博账号登录

搜索
热搜: 邀请 充值 邮箱
查看: 1485|回复: 44
收起左侧

[电影剧集] 1992. 蓝江传之反飞组风云 (DVDRip.日本二区) [2.3GB]

[复制链接]
发表于 2015-2-1 23:40 | 显示全部楼层 |阅读模式

马上注册,结交更多同道中人,享用更多功能,让你轻松融入哥迷大家庭。

您需要 登录 才可以下载或查看,没有帐号?注册 新浪微博登陆

x
《蓝江传之反飞组风云》是由张国荣、周慧敏等主演的电影,于1992年5月14日在中国香港上映。《阿飞正传》为张国荣带来金像影帝的桂冠,两年后依然火候不减,本来是要Leslie复制一个类似的阿飞角色,可以看到情节有类似的地方,不过最终没有采纳。
这部戏是永盛投资的,所以向老板作为名义上的男主角,算是自娱自乐过足了瘾。不过由向老板演正直的探长,且一本正经的样子,看起来就莫名其妙的搞笑。更神奇的是竟获得了第12届香港电影金像奖最佳男主角的提名。
当然亮点还是哥哥,虽然剧情不怎么样,但他依然演得到位。周慧敏饰演的花瓶角色造型很失败,可以无视。
内置的DVD中文字幕是原生的广东方言,看起来比听起来还费劲,普通话版本的没找到,没时间做。电影是国粤语双音轨的,如果看不明白,可以切换成国语配音。

Arrest the Restless.jpg

中文名:蓝江传之反飞组风云
外文名:
Arrest the Restless
地 区:中国香港
导 演:刘国昌
编 剧:陈文强,曾谨昌
类 型:剧情 犯罪 警匪
主 演:张国荣,向华强,周慧敏,秦沛,叶德娴
上 映:1992年5月14日 (香港)
时 长:112分钟
对 白:粤语
色 彩:彩色

剧情简介:
警探长蓝江,由于为人正直,一直坚持廉政扫黑从而得罪了上级领导,被调往反飞组工作,在反飞工作过程中遇到了在道上混的飞哥(张国荣)与他女友梁小敏(周慧敏),飞哥后来由于与议员之子同样在黑道上卖毒品的周公子发生矛盾争执,梁小敏因此被周公子脸上淋了漒水而遭毁容而梁小敏的同室女友也惨遭周公子手下的人强暴后也惨遭杀害,飞哥也因此案而惨遭迫害,被周议员伙同警局高级探长颜同一起污陷当作杀人犯被警方追捕,阿飞幸得蓝江鼎力保护得已逃脱,最后在蓝江的全力破案下,周公子杀人及贩卖毒品案水落石出,而周公子也在警方及阿飞在后面的紧追不舍逃跑追捕中被颜同所误杀……

编码信息:
  1. General
  2. Unique ID                      : 226828874945262716724694975432284831656 (0xAAA5A6F9E9D0869C84E40436F545FFA8)
  3. Format                         : Matroska
  4. Format version                 : Version 4 / Version 2
  5. File size                      : 2.32 GiB
  6. Duration                       : 1h 49mn
  7. Overall bit rate               : 3 019 Kbps
  8. Movie name                     : 藍江傳之反飛組風雲 (1992)
  9. Encoded date                   : UTC 2010-02-22 21:41:31
  10. Writing application            : mkvmerge v5.9.0 ('On The Loose') built on Dec  9 2012 15:37:01
  11. Writing library                : libebml v1.3.0 + libmatroska v1.4.0

  12. Video
  13. ID                             : 1
  14. Format                         : AVC
  15. Format/Info                    : Advanced Video Codec
  16. Format profile                 : Main@L3.1
  17. Format settings, CABAC         : Yes
  18. Format settings, ReFrames      : 4 frames
  19. Muxing mode                    : Header stripping
  20. Codec ID                       : V_MPEG4/ISO/AVC
  21. Duration                       : 1h 49mn
  22. Bit rate                       : 2 640 Kbps
  23. Width                          : 1 024 pixels
  24. Height                         : 768 pixels
  25. Display aspect ratio           : 4:3
  26. Frame rate mode                : Constant
  27. Frame rate                     : 29.970 fps
  28. Color space                    : YUV
  29. Chroma subsampling             : 4:2:0
  30. Bit depth                      : 8 bits
  31. Scan type                      : Progressive
  32. Bits/(Pixel*Frame)             : 0.112
  33. Stream size                    : 1.98 GiB (85%)
  34. Writing library                : x264 core 116 r2019 9cc407d
  35. Encoding settings              : cabac=1 / ref=3 / deblock=1:0:0 / analyse=0x1:0x111 / me=hex / subme=6 / psy=1 / psy_rd=1.00:0.00 / mixed_ref=1 / me_range=16 / chroma_me=1 / trellis=1 / 8x8dct=0 / cqm=0 / deadzone=21,11 / fast_pskip=1 / chroma_qp_offset=-2 / threads=3 / sliced_threads=0 / nr=0 / decimate=1 / interlaced=0 / bluray_compat=0 / constrained_intra=0 / bframes=3 / b_pyramid=2 / b_adapt=1 / b_bias=0 / direct=1 / weightb=1 / open_gop=0 / weightp=2 / keyint=250 / keyint_min=25 / scenecut=40 / intra_refresh=0 / rc_lookahead=40 / rc=abr / mbtree=1 / bitrate=2640 / ratetol=1.0 / qcomp=0.60 / qpmin=0 / qpmax=69 / qpstep=4 / vbv_maxrate=3000 / vbv_bufsize=600 / nal_hrd=none / ip_ratio=1.40 / aq=1:1.00
  36. Default                        : Yes
  37. Forced                         : No

  38. Audio #1
  39. ID                             : 2
  40. Format                         : AC-3
  41. Format/Info                    : Audio Coding 3
  42. Mode extension                 : CM (complete main)
  43. Format settings, Endianness    : Big
  44. Muxing mode                    : Header stripping
  45. Codec ID                       : A_AC3
  46. Duration                       : 1h 49mn
  47. Bit rate mode                  : Constant
  48. Bit rate                       : 192 Kbps
  49. Channel(s)                     : 2 channels
  50. Channel positions              : Front: L R
  51. Sampling rate                  : 48.0 KHz
  52. Bit depth                      : 16 bits
  53. Compression mode               : Lossy
  54. Stream size                    : 151 MiB (6%)
  55. Title                          : 粤语
  56. Language                       : Chinese
  57. Default                        : Yes
  58. Forced                         : No

  59. Audio #2
  60. ID                             : 3
  61. Format                         : AC-3
  62. Format/Info                    : Audio Coding 3
  63. Mode extension                 : CM (complete main)
  64. Format settings, Endianness    : Big
  65. Muxing mode                    : Header stripping
  66. Codec ID                       : A_AC3
  67. Duration                       : 1h 49mn
  68. Bit rate mode                  : Constant
  69. Bit rate                       : 192 Kbps
  70. Channel(s)                     : 2 channels
  71. Channel positions              : Front: L R
  72. Sampling rate                  : 48.0 KHz
  73. Bit depth                      : 16 bits
  74. Compression mode               : Lossy
  75. Stream size                    : 151 MiB (6%)
  76. Title                          : 国语
  77. Language                       : Chinese
  78. Default                        : No
  79. Forced                         : No

  80. Text #1
  81. ID                             : 4
  82. Format                         : VobSub
  83. Muxing mode                    : zlib
  84. Codec ID                       : S_VOBSUB
  85. Codec ID/Info                  : The same subtitle format used on DVDs
  86. Title                          : 粤中
  87. Language                       : Chinese
  88. Default                        : Yes
  89. Forced                         : No

  90. Text #2
  91. ID                             : 5
  92. Format                         : VobSub
  93. Muxing mode                    : zlib
  94. Codec ID                       : S_VOBSUB
  95. Codec ID/Info                  : The same subtitle format used on DVDs
  96. Title                          : English
  97. Language                       : English
  98. Default                        : No
  99. Forced                         : No
复制代码

下载地址:
游客,如果您要查看本帖隐藏内容请回复

发表于 2015-2-1 23:43 | 显示全部楼层
俊男靓女呀,虽然周姐姐花瓶了。不过叶德娴很出彩。
发表于 2015-2-1 23:53 | 显示全部楼层
满好看的。。。。。。。。。。。。。

492

粉丝

537

关注

2220

微博
发表于 2015-2-2 00:44 | 显示全部楼层
[玫瑰]//@莱斯利曾: //@为你钟情的时光: 转发微博
发表于 2015-2-2 07:24 | 显示全部楼层
这部戏的资源很少,值得收藏。

53

粉丝

210

关注

618

微博
发表于 2015-2-2 11:06 | 显示全部楼层
还是没看到过粤语中文字幕的
发表于 2015-2-2 11:07 | 显示全部楼层
资源珍贵,多谢分享!
发表于 2015-2-2 14:22 | 显示全部楼层
我来搬这部片子了~谢谢~抱走!
发表于 2015-2-3 19:14 | 显示全部楼层
他所有的角色都喜歡
发表于 2015-2-8 17:59 | 显示全部楼层
谢谢分享!
发表于 2015-2-9 01:47 | 显示全部楼层
谢谢分享!!!
发表于 2015-2-9 07:48 | 显示全部楼层
谢谢!留着慢慢欣赏
发表于 2015-2-10 11:31 | 显示全部楼层
多谢分享!
发表于 2015-2-10 13:49 | 显示全部楼层
感谢有心人的分享。
发表于 2015-2-11 21:53 | 显示全部楼层
收藏收藏~~谢谢分享!!!
您需要登录后才可以回帖 登录 | 注册 新浪微博登陆

本版积分规则

手机客户端|小黑屋|Archiver|QQ群|关于我们|联系方式| 荣光无限|沪ICP备09096540号-1     

© 2002-2017 荣光无限 - 张国荣歌影迷网   版权所有

快速回复 返回顶部 返回列表