荣光无限论坛

找回密码
注册

扫一扫,访问微社区

新浪微博登陆

微博账号登录

搜索
热搜: 邀请 充值 邮箱
查看: 51023|回复: 191
收起左侧

[演唱现场] 1997. 张国荣跨越97演唱会 (LDRip.x264.MP3) [2.06GB]

[复制链接]
发表于 2004-4-5 22:37 | 显示全部楼层 |阅读模式

马上注册,结交更多同道中人,享用更多功能,让你轻松融入哥迷大家庭。

您需要 登录 才可以下载或查看,没有帐号?注册 新浪微博登陆

x
张国荣跨越九七演唱会
这是发行的港版双视角 DVD-9 中的纯欣赏版本,也就是LD版本里的内容,有中英文对照的小字幕。
原盘带有 5.1 声道的 AC-3 音轨,但是不论如何封装,后面的部分跟转制后的 AVI 视频画面里口型都对不上,所以无奈只用了 192Kbps 的 MP3 音频。
画面清晰度还不是太好,首先因为 DVD 原画面就不太清晰,虽然是 DVD-9,但包括了欣赏版和卡拉OK版,实际上只有 DVD-5 的容量;其次个人认为跨越97演唱会的灯光效果和镜头距离都不是太好,色调上对比度太大,远镜头比较多。

曲目列表:

01. Opening + 风再起时
02. 今生今世
03. Meldey: 恋爱交叉 / 打开信箱 / 蓝色忧郁 / 黑色午夜
04. 爱慕
05. 侧面
06. 有心人
07. 电影 Meldey: 阿飞正传 / 梦 / A Thousand Dreams of You
08. 京剧 + 当爱已成往事
09. 怪你过分美丽
10. 风继续吹
11. 怨男
12. 想你 / 偷情
13. 谈情说爱
14. 红颜白发 / 最爱
15. 明星
16. 红
17. Count Down + Auld Lang Sang
18. 月亮代表我的心
19. 追

编码信息:
  1.     General
  2.     Unique ID : 251560890641547547610837268285529450578 (0xBD40DD7E8E1C81EB83906C23CBD6E852)
  3.     Format : Matroska
  4.     Format version : Version 4 / Version 2
  5.     File size : 2.07 GiB
  6.     Duration : 1h 47mn
  7.     Overall bit rate : 2 767 Kbps
  8.     Movie name : 張國榮跨越97演唱會
  9.     Encoded date : UTC 2010-02-22 21:41:31
  10.     Writing application : mkvmerge v5.9.0 ('On The Loose') built on Dec  9 2012 15:37:01
  11.     Writing library : libebml v1.3.0 + libmatroska v1.4.0

  12.     Video #1
  13.     ID : 1
  14.     Format : AVC
  15.     Format/Info : Advanced Video Codec
  16.     Format profile : Main@L3.0
  17.     Format settings, CABAC : Yes
  18.     Format settings, ReFrames : 4 frames
  19.     Muxing mode : Header stripping
  20.     Codec ID : V_MPEG4/ISO/AVC
  21.     Duration : 1h 47mn
  22.     Bit rate : 2 520 Kbps
  23.     Width : 720 pixels
  24.     Height : 544 pixels
  25.     Display aspect ratio : 4:3
  26.     Frame rate mode : Constant
  27.     Frame rate : 29.970 fps
  28.     Color space : YUV
  29.     Chroma subsampling : 4:2:0
  30.     Bit depth : 8 bits
  31.     Scan type : Progressive
  32.     Bits/(Pixel*Frame) : 0.215
  33.     Stream size : 1.88 GiB (91%)
  34.     Writing library : x264 core 116 r2019 9cc407d
  35.     Encoding settings : cabac=1 / ref=3 / deblock=1:0:0 / analyse=0x1:0x111 / me=hex / subme=5 / psy=1 / psy_rd=1.00:0.00 / mixed_ref=1 / me_range=16 / chroma_me=1 / trellis=1 / 8x8dct=0 / cqm=0 / deadzone=21,11 / fast_pskip=1 / chroma_qp_offset=0 / threads=3 / sliced_threads=0 / nr=0 / decimate=1 / interlaced=0 / bluray_compat=0 / constrained_intra=0 / bframes=3 / b_pyramid=2 / b_adapt=1 / b_bias=0 / direct=1 / weightb=1 / open_gop=0 / weightp=2 / keyint=250 / keyint_min=25 / scenecut=40 / intra_refresh=0 / rc_lookahead=40 / rc=crf / mbtree=1 / crf=6.0 / qcomp=0.60 / qpmin=0 / qpmax=69 / qpstep=4 / vbv_maxrate=2700 / vbv_bufsize=540 / crf_max=0.0 / nal_hrd=none / ip_ratio=1.40 / aq=1:1.00
  36.     Default : Yes
  37.     Forced : No

  38.     Audio #2
  39.     ID : 2
  40.     Format : MPEG Audio
  41.     Format version : Version 1
  42.     Format profile : Layer 3
  43.     Mode : Joint stereo
  44.     Mode extension : MS Stereo
  45.     Muxing mode : Header stripping
  46.     Codec ID : A_MPEG/L3
  47.     Codec ID/Hint : MP3
  48.     Duration : 1h 47mn
  49.     Bit rate mode : Constant
  50.     Bit rate : 192 Kbps
  51.     Channel(s) : 2 channels
  52.     Sampling rate : 48.0 KHz
  53.     Compression mode : Lossy
  54.     Stream size : 147 MiB (7%)
  55.     Language : Chinese
  56.     Default : Yes
  57.     Forced : No
复制代码

下载地址:
游客,如果您要查看本帖隐藏内容请回复
发表于 2004-4-6 09:42 | 显示全部楼层
我以前就看过了,可是我从没下载下来过。这500荣币也值。
发表于 2004-4-6 17:51 | 显示全部楼层
市面上有卖呀!我在贝塔斯曼买的完整版,嘻嘻,省了500
发表于 2004-4-6 19:22 | 显示全部楼层
97年的演唱会非常好看。特别是开头,哥哥的造型和几首歌都非常好,没有看到的赶快去下载吧。
发表于 2004-4-8 16:43 | 显示全部楼层
97尽显哥哥的高贵、优雅,给人以回肠荡气的感觉。没看过的朋友,一定要去看啊!
发表于 2004-4-11 12:00 | 显示全部楼层
  luo1876  : “我在贝塔斯曼买的完整版”
  请给大家分享,万分期待。

发表于 2004-4-13 20:45 | 显示全部楼层
卓越上也有DVD卖,全整的
发表于 2004-4-17 10:03 | 显示全部楼层
最喜欢哥哥和小朋友那段对话,还有倒数联欢时的哥哥,真象一个小孩!
发表于 2004-4-17 18:48 | 显示全部楼层
XINOU,你说"卓越上有DVD卖,全整的"是什么意思,比这个下载版本多些内容吗?
发表于 2004-4-17 22:39 | 显示全部楼层
我买了CD,曲目还要多点,但是为什么所有版本都没有嘉宾演唱片段啊?
发表于 2004-4-18 18:46 | 显示全部楼层
请问大家指的版是不是有想你和偷情的??!
发表于 2004-4-18 19:51 | 显示全部楼层
买买买,500值!555555555555~~~~~~~~~~~~我的钱,我好穷!!!!!
发表于 2004-4-18 20:49 | 显示全部楼层
终于付了钱,可以下载了。明天可以看了!
发表于 2004-4-19 18:01 | 显示全部楼层
下面引用由sunjz2004/04/06 09:23am 发表的内容:
可否限期下载?一天或两天,过期才收费。
是新来的吧
老大传上来不容易啊,而且老大的东东质量都很不错,加紧赚吧,多发帖子
500荣币很值得呢
发表于 2004-4-23 12:26 | 显示全部楼层
偶终于买了,开心
您需要登录后才可以回帖 登录 | 注册 新浪微博登陆

本版积分规则

手机客户端|小黑屋|Archiver|QQ群|关于我们|联系方式| 荣光无限|沪ICP备09096540号-1     

© 2002-2017 荣光无限 - 张国荣歌影迷网   版权所有

快速回复 返回顶部 返回列表