荣光无限论坛

找回密码
注册

扫一扫,访问微社区

新浪微博登陆

微博账号登录

搜索
热搜: 邀请 充值 邮箱
查看: 2263|回复: 42
收起左侧

[视频音乐] 2003. 永远宠爱张国荣 (DVDRip / 双音轨 / 2.23GB)

[复制链接]
发表于 2012-10-20 20:53 | 显示全部楼层 |阅读模式

马上注册,结交更多同道中人,享用更多功能,让你轻松融入哥迷大家庭。

您需要 登录 才可以下载或查看,没有帐号?注册 新浪微博登陆

x
永远宠爱张国荣 [In Memory of Leslie Cheung] (精选电影主题曲卡拉OK)

2003_rock_leslie_dvd.jpg

视频格式:DVDRip.x264.AC3.2Ch.2Audio
x264 视频编码;立体声 AC3 音频,双音轨(原唱、伴唱可切换),48KHz / 192Kbps

2003年4月9日滚石香港发行 (RDL5153),这个卡拉OK的DVD精选集中几乎收录了哥哥滚石时代的所有录制过的MV,清晰度很好,每首MV前面都标注有出处专辑,音轨中包括和原唱和伴唱双音轨,相比以往零零星星发行的各种介质的MV,这个精选集可以说是最全面的滚石时代歌曲的MV合集了,非常值得收藏。


曲目列表:

01、追(粤) - 105MB
02、今生今世(粤) - 82MB
03、当爱已成往事(国) - 96MB
04、深情难拥(国) - 71MB
05、红颜白发(粤) - 65MB
06、夜半歌声(国) - 64MB
07、一辈子失去了你(国) - 86MB
08、眉来眼去(粤)  - 80MB
09、何去何从之阿飞传(国)  - 63MB
10、A THOUSAND DREAM OF YOU (英) - 69MB
11、红(粤) - 100MB
12、偷情(粤)- 95MB
13、怪你过份美丽(粤) - 93MB
14、怨男(粤) - 75MB
15、有心人(粤) - 86MB
16、TWIST & SHOUT (英)  - 56MB
17、谈情说爱(粤) - 79MB
18、谈恋爱(国) - 70MB
19、当真就好(国) - 99MB
20、FROM NOW ON (英) - 80MB
21、这些年来(粤) - 95MB
22、取暖(国) - 78MB
23、MY GOD(国) - 78MB
24、LOVE LIKE MAGIE (国) - 86MB
25、EVERYBODY(国) - 75MB
26、真相(国) - 90MB
27、作伴(国) - 83MB
28、被爱(国) - 92MB


编码信息(例:追):
  1. General
  2.     Unique ID : 170465084163568162769884494057809940963 (0x803E6189A12BBAE9804F88356E5891E3)
  3.     Complete name : 01.追.mkv
  4.     Format : Matroska
  5.     Format version : Version 1
  6.     File size : 106 MiB
  7.     Duration : 5mn 43s
  8.     Overall bit rate : 2 587 Kbps
  9.     Movie name : 追 - 張國榮
  10.     Encoded date : UTC 2009-09-09 09:00:00
  11.     Writing application : mkvmerge v2.2.0 ('Turn It On Again') built on Mar  4 2008 12:58:26
  12.     Writing library : libebml v0.7.7 + libmatroska v0.8.1

  13.   Video #1
  14.     ID : 1
  15.     Format : AVC
  16.     Format/Info : Advanced Video Codec
  17.     Format profile : Main@L3.0
  18.     Format settings, CABAC : Yes
  19.     Format settings, ReFrames : 4 frames
  20.     Codec ID : V_MPEG4/ISO/AVC
  21.     Duration : 5mn 43s
  22.     Bit rate : 2 151 Kbps
  23.     Width : 720 pixels
  24.     Height : 544 pixels
  25.     Display aspect ratio : 4:3
  26.     Original display aspect ratio : 4:3
  27.     Frame rate : 29.970 fps
  28.     Color space : YUV
  29.     Chroma subsampling : 4:2:0
  30.     Bit depth : 8 bits
  31.     Scan type : Progressive
  32.     Bits/(Pixel*Frame) : 0.183
  33.     Stream size : 88.1 MiB (83%)
  34.     Writing library : x264 core 116 r2019 9cc407d
  35.     Encoding settings : cabac=1 / ref=3 / deblock=1:0:0 / analyse=0x1:0x111 / me=hex / subme=5 / psy=1 / psy_rd=1.00:0.00 / mixed_ref=1 / me_range=16 / chroma_me=1 / trellis=1 / 8x8dct=0 / cqm=0 / deadzone=21,11 / fast_pskip=1 / chroma_qp_offset=0 / threads=3 / sliced_threads=0 / nr=0 / decimate=1 / interlaced=0 / bluray_compat=0 / constrained_intra=0 / bframes=3 / b_pyramid=2 / b_adapt=1 / b_bias=0 / direct=1 / weightb=1 / open_gop=0 / weightp=2 / keyint=250 / keyint_min=25 / scenecut=40 / intra_refresh=0 / rc_lookahead=40 / rc=crf / mbtree=1 / crf=15.0 / qcomp=0.60 / qpmin=0 / qpmax=69 / qpstep=4 / vbv_maxrate=2500 / vbv_bufsize=500 / crf_max=0.0 / nal_hrd=none / ip_ratio=1.40 / aq=1:1.00
  36.     Default : Yes
  37.     Forced : No

  38.   Audio #2
  39.     ID : 2
  40.     Format : AC-3
  41.     Format/Info : Audio Coding 3
  42.     Mode extension : CM (complete main)
  43.     Format settings, Endianness : Big
  44.     Codec ID : A_AC3
  45.     Duration : 5mn 43s
  46.     Bit rate mode : Constant
  47.     Bit rate : 192 Kbps
  48.     Channel(s) : 2 channels
  49.     Channel positions : Front: L R
  50.     Sampling rate : 48.0 KHz
  51.     Bit depth : 16 bits
  52.     Compression mode : Lossy
  53.     Stream size : 7.86 MiB (7%)
  54.     Title : 原唱
  55.     Default : Yes
  56.     Forced : No

  57.   Audio #3
  58.     ID : 3
  59.     Format : AC-3
  60.     Format/Info : Audio Coding 3
  61.     Mode extension : CM (complete main)
  62.     Format settings, Endianness : Big
  63.     Codec ID : A_AC3
  64.     Duration : 5mn 43s
  65.     Bit rate mode : Constant
  66.     Bit rate : 192 Kbps
  67.     Channel(s) : 2 channels
  68.     Channel positions : Front: L R
  69.     Sampling rate : 48.0 KHz
  70.     Bit depth : 16 bits
  71.     Compression mode : Lossy
  72.     Stream size : 7.86 MiB (7%)
  73.     Title : 伴唱
  74.     Default : No
  75.     Forced : No
复制代码


下载地址:
游客,如果您要查看本帖隐藏内容请回复

发表于 2012-12-15 14:15 | 显示全部楼层
已经收藏了原版DVD的路过
 楼主| 发表于 2012-12-15 16:22 | 显示全部楼层
DVD的数据并不适合电脑收藏,首先文件太大,尤其对于DVD介质的MV来说,整个专辑是一个整体,每1GB分割为一个文件,合并起来以及包含的歌曲菜单列表都需要索引文件,每一支歌并不是一个单独文件。
做成压缩格式后,画质没有损失多少,音轨都是直接拷贝过来的。每首歌一个独立文件,影像、音频(包括多音轨)、字幕(包括多字幕)都是独立的,使用封装软件可以单独拆开和重新封装。相对于DVD来说,做到这些就需要很专业的去折腾一番了。
我们提供的就是最利于电脑收藏的资源,其实等于是把各种介质储存的数据拷贝到电脑储存后简单化了。
发表于 2014-7-9 19:27 | 显示全部楼层
辛苦了 多谢分享
发表于 2014-7-10 01:33 | 显示全部楼层
稀饭稀饭,爱你楼主
发表于 2014-7-10 12:02 | 显示全部楼层
多谢分享!
发表于 2014-7-10 21:49 | 显示全部楼层
谢谢分享
发表于 2014-7-13 15:44 | 显示全部楼层
多谢分享~~~~
发表于 2014-7-13 16:06 | 显示全部楼层
电脑存版必须有,多谢
发表于 2014-7-22 23:09 | 显示全部楼层
谢谢分享
发表于 2014-7-31 22:40 | 显示全部楼层

感谢有心人的分享。
发表于 2014-8-15 13:46 | 显示全部楼层
辛苦了 多谢分享
发表于 2014-8-28 15:41 | 显示全部楼层
谢谢了,谢谢了,谢谢了
发表于 2014-10-6 11:50 | 显示全部楼层
感谢荣光无限
发表于 2014-11-2 05:12 | 显示全部楼层
Thank you so much!
您需要登录后才可以回帖 登录 | 注册 新浪微博登陆

本版积分规则

手机客户端|小黑屋|Archiver|QQ群|关于我们|联系方式| 荣光无限|沪ICP备09096540号-1     

© 2002-2017 荣光无限 - 张国荣歌影迷网   版权所有

快速回复 返回顶部 返回列表