荣光无限论坛

找回密码
注册

扫一扫,访问微社区

新浪微博登陆

只需一步, 快速开始

搜索
热搜: 邀请 充值 邮箱
查看: 1956|回复: 35
收起左侧

[电影剧集] 1985. 为你钟情 (BDRip.720P) [2.8GB]

[复制链接]
发表于 2013-5-18 12:32 | 显示全部楼层 |阅读模式

马上注册,结交更多同道中人,享用更多功能,让你轻松融入哥迷大家庭。

您需要 登录 才可以下载或查看,没有帐号?注册 新浪微博登陆

x
For Your Heart Only.JPG

片 名:为你钟情
译 名:For Your Heart Only
年 代:1985
地 区:中国香港
类 别:喜剧/剧情/爱情
语 言:普通话/粤语
片 长:85 mins
导 演:冯世雄
主 演:张国荣,李丽珍,柏安妮,孟海,罗明珠
语 言:粤语原声+国语配音
字 幕:简体中文
格 式:x264.AC-3.DD51.2Audios
尺 寸:1280×720
大 小:2.8 GB

剧情简介:

风流不羁的唱片师陈福水(张国荣饰),扭尽千方百计,终讨得余凤娇(李丽珍饰)欢心,不久又故态复萌,引来四周指责。另一方面,水怕其妺(柏安妮饰)年少无知,拒绝好友沙皮(孟海饰)借故亲近。一天,水发觉珍乃一生中最爱,但对方早已心灰意冷,离他远去……

编码信息:
  1.     General
  2.     Unique ID : 207132138560709999256127261333023079083 (0x9BD432E534B2B3899D36D50A1FDBBAAB)
  3.     Format : Matroska
  4.     Format version : Version 4 / Version 2
  5.     File size : 2.80 GiB
  6.     Duration : 1h 28mn
  7.     Overall bit rate : 4 524 Kbps
  8.     Movie name : 為你鍾情
  9.     Encoded date : UTC 2010-02-22 21:41:31
  10.     Writing application : mkvmerge v5.9.0 ('On The Loose') built on Dec  9 2012 15:37:01
  11.     Writing library : libebml v1.3.0 + libmatroska v1.4.0

  12.     Video #1
  13.     ID : 1
  14.     Format : AVC
  15.     Format/Info : Advanced Video Codec
  16.     Format profile : High@L4.1
  17.     Format settings, CABAC : Yes
  18.     Format settings, ReFrames : 4 frames
  19.     Muxing mode : Header stripping
  20.     Codec ID : V_MPEG4/ISO/AVC
  21.     Duration : 1h 28mn
  22.     Bit rate : 3 629 Kbps
  23.     Width : 1 280 pixels
  24.     Height : 720 pixels
  25.     Display aspect ratio : 16:9
  26.     Frame rate mode : Constant
  27.     Frame rate : 24.000 fps
  28.     Color space : YUV
  29.     Chroma subsampling : 4:2:0
  30.     Bit depth : 8 bits
  31.     Scan type : Progressive
  32.     Bits/(Pixel*Frame) : 0.164
  33.     Stream size : 2.19 GiB (78%)
  34.     Writing library : x264 core 114 r1913 5fd3dce
  35.     Encoding settings : cabac=1 / ref=4 / deblock=1:-2:-2 / analyse=0x3:0x113 / me=hex / subme=7 / psy=1 / psy_rd=1.00:0.00 / mixed_ref=1 / me_range=16 / chroma_me=1 / trellis=1 / 8x8dct=1 / cqm=0 / deadzone=21,11 / fast_pskip=1 / chroma_qp_offset=-2 / threads=6 / sliced_threads=0 / nr=0 / decimate=1 / interlaced=0 / constrained_intra=0 / bframes=3 / b_pyramid=2 / b_adapt=1 / b_bias=0 / direct=1 / weightb=1 / open_gop=0 / weightp=2 / keyint=250 / keyint_min=24 / scenecut=40 / intra_refresh=0 / rc_lookahead=40 / rc=2pass / mbtree=1 / bitrate=3629 / ratetol=1.0 / qcomp=0.60 / qpmin=0 / qpmax=69 / qpstep=4 / cplxblur=20.0 / qblur=0.5 / ip_ratio=1.40 / aq=1:1.00
  36.     Default : Yes
  37.     Forced : No

  38.     Audio #2
  39.     ID : 2
  40.     Format : AC-3
  41.     Format/Info : Audio Coding 3
  42.     Mode extension : CM (complete main)
  43.     Format settings, Endianness : Big
  44.     Muxing mode : Header stripping
  45.     Codec ID : A_AC3
  46.     Duration : 1h 28mn
  47.     Bit rate mode : Constant
  48.     Bit rate : 448 Kbps
  49.     Channel(s) : 6 channels
  50.     Channel positions : Front: L C R, Side: L R, LFE
  51.     Sampling rate : 48.0 KHz
  52.     Bit depth : 16 bits
  53.     Compression mode : Lossy
  54.     Stream size : 284 MiB (10%)
  55.     Title : 粤语原声
  56.     Language : Chinese
  57.     Default : Yes
  58.     Forced : No

  59.     Audio #3
  60.     ID : 3
  61.     Format : AC-3
  62.     Format/Info : Audio Coding 3
  63.     Mode extension : CM (complete main)
  64.     Format settings, Endianness : Big
  65.     Muxing mode : Header stripping
  66.     Codec ID : A_AC3
  67.     Duration : 1h 28mn
  68.     Bit rate mode : Constant
  69.     Bit rate : 448 Kbps
  70.     Channel(s) : 6 channels
  71.     Channel positions : Front: L C R, Side: L R, LFE
  72.     Sampling rate : 48.0 KHz
  73.     Bit depth : 16 bits
  74.     Compression mode : Lossy
  75.     Stream size : 284 MiB (10%)
  76.     Title : 国语配音
  77.     Language : Chinese
  78.     Default : No
  79.     Forced : No

  80.     Text #4
  81.     ID : 4
  82.     Format : UTF-8
  83.     Codec ID : S_TEXT/UTF8
  84.     Codec ID/Info : UTF-8 Plain Text
  85.     Language : Chinese
  86.     Default : Yes
  87.     Forced : No
复制代码

下载地址:
游客,如果您要查看本帖隐藏内容请回复
发表于 2015-2-8 21:10 | 显示全部楼层
多谢分享!
发表于 2015-2-9 01:48 | 显示全部楼层
谢谢分享!!!
发表于 2015-2-24 15:09 | 显示全部楼层
感谢分享。
发表于 2015-3-5 19:30 | 显示全部楼层
哥哥的电影,喜欢
发表于 2015-3-10 21:42 | 显示全部楼层
哇,就是想看清楚的,特别谢谢坛主!
发表于 2015-3-11 09:35 | 显示全部楼层
那时都好纯
发表于 2015-4-6 21:05 | 显示全部楼层
很喜欢为你钟情这部电影,哥哥早期偶像派作品
发表于 2015-4-7 10:00 | 显示全部楼层
谢谢楼主分享!
发表于 2015-6-1 10:50 | 显示全部楼层
很喜欢,哥哥早期作品
发表于 2015-7-2 18:28 | 显示全部楼层
找了好久了,谢谢分享!
发表于 2015-8-10 17:10 | 显示全部楼层
谢谢分享
发表于 2015-10-21 19:44 | 显示全部楼层
thanks for share~~~
发表于 2016-1-9 00:36 | 显示全部楼层
收藏了,谢谢分享
发表于 2016-1-10 20:51 | 显示全部楼层
怀念哥哥,怀念一切,
您需要登录后才可以回帖 登录 | 注册 新浪微博登陆

本版积分规则

手机客户端|小黑屋|Archiver|QQ群|关于我们|联系方式| 荣光无限|沪ICP备09096540号-1     

© 2002-2018 荣光无限 - 张国荣歌影迷网   版权所有

快速回复 返回顶部 返回列表