荣光无限论坛

找回密码
注册

扫一扫,访问微社区

新浪微博登陆

只需一步, 快速开始

搜索
热搜: 邀请 充值 邮箱
查看: 1700|回复: 52
收起左侧

[电影剧集] 1999. 流星语 (DVDRip.香港三区) [2.56GB]

[复制链接]
发表于 2015-1-23 14:00 | 显示全部楼层 |阅读模式

马上注册,结交更多同道中人,享用更多功能,让你轻松融入哥迷大家庭。

您需要 登录 才可以下载或查看,没有帐号?注册 新浪微博登陆

x
《流星语》是由 Toko-Tokuma 公司出品的一部剧情片,取材于查理·卓别林的经典名作《苦儿流浪记》。影片由张之亮执导,张国荣,琦琦等人主演。
影片讲述了一败涂地的证券经纪李兆荣与被母亲抛弃的四岁明仔相依为命的故事。
影片于1999年10月14日在中国香港上映。

The Kid.jpg

中文名:流星语
外文名:The Kid
出 品:Toko-Tokuma
地 区:中国香港
导 演:张之亮
编 剧:邓汉强
类 型:剧情
主 演:张国荣,琦琦,狄龙,吴家丽,林家栋
片 长:110 min
上 映:1999年10月14日

剧情简介:
被丈夫抛弃的年轻女子少君(琦琦饰),把初生的儿子偷偷放在一艘豪华游艇上,希望儿子会被有钱人家收养,可以在较好的环境中长大成才。
金融风暴中输得一败涂地的证券经纪李兆荣(张国荣饰),正是一无所有之际,却遇上这小生命,同是天涯沦落人,荣决定暂时收养这个小孤儿,然而这个“暂时”转眼间就是四年。
四岁的明仔在荣的爱心照顾中长大,活泼可爱,两人住在养老院的天台木屋。荣从来没有把明仔当小孩子看,也没有给过他任何物质上的享受,两人就是分享着一种苦中作乐的生活方式,关系就如同认识多年的老朋友。
四年的变迁,少君摇身一变,成为慈善基金的主席,可是她却从来没有忘记那段痛苦的回忆,更因此对小孩产生了莫名的恐惧。为了弥补抛弃儿子的罪疚感,她寄情于社会福利事业,尤其是照顾社会上乏人关心的儿童。
为了资助养老院的兰姐,开设一所照料街童的托儿所,少君认识了荣,而且在不知不觉中重遇亲生儿子明仔,两人虽未知对方身份,却是分外的投缘。对区内事情了如指掌的警察龙Sir,苦口婆心的劝荣改变其自由散漫的生活方式,让明仔正常的成长;少君亦责怪荣没有为孩子的将来着想,更提出收养明仔,令荣倍感烦扰。在一次交通意外中,街坊发现原来明仔并非荣的亲生儿子,众口一辞的指斥孩子常被疏于照顾,大家出于一片好心,却把事情闹至一发不可收拾,福利官强行带走明仔,荣拼命反抗。
最终荣得知少君正是明仔的亲生母亲,虽然不舍得,还是决定把明仔交给少君抚养,为了孩子的幸福,他们鼓起勇气做出选择。

编码信息:
  1. General
  2. Unique ID                      : 180456369443973973504322173922593611664 (0x87C2A1EF3D51DB86BD597E831C161F90)
  3. Format                         : Matroska
  4. Format version                 : Version 4 / Version 2
  5. File size                      : 2.57 GiB
  6. Duration                       : 1h 50mn
  7. Overall bit rate               : 3 329 Kbps
  8. Movie name                     : 流星語 (1999)
  9. Encoded date                   : UTC 2010-02-22 21:41:31
  10. Writing application            : mkvmerge v5.9.0 ('On The Loose') built on Dec  9 2012 15:37:01
  11. Writing library                : libebml v1.3.0 + libmatroska v1.4.0

  12. Video
  13. ID                             : 1
  14. Format                         : AVC
  15. Format/Info                    : Advanced Video Codec
  16. Format profile                 : Main@L3.1
  17. Format settings, CABAC         : Yes
  18. Format settings, ReFrames      : 4 frames
  19. Muxing mode                    : Header stripping
  20. Codec ID                       : V_MPEG4/ISO/AVC
  21. Duration                       : 1h 50mn
  22. Bit rate                       : 2 560 Kbps
  23. Width                          : 1 024 pixels
  24. Height                         : 768 pixels
  25. Display aspect ratio           : 4:3
  26. Frame rate mode                : Constant
  27. Frame rate                     : 29.970 fps
  28. Color space                    : YUV
  29. Chroma subsampling             : 4:2:0
  30. Bit depth                      : 8 bits
  31. Scan type                      : Progressive
  32. Bits/(Pixel*Frame)             : 0.109
  33. Stream size                    : 1.93 GiB (75%)
  34. Writing library                : x264 core 116 r2019 9cc407d
  35. Encoding settings              : cabac=1 / ref=3 / deblock=1:0:0 / analyse=0x1:0x111 / me=hex / subme=6 / psy=1 / psy_rd=1.00:0.00 / mixed_ref=1 / me_range=16 / chroma_me=1 / trellis=1 / 8x8dct=0 / cqm=0 / deadzone=21,11 / fast_pskip=1 / chroma_qp_offset=-2 / threads=3 / sliced_threads=0 / nr=0 / decimate=1 / interlaced=0 / bluray_compat=0 / constrained_intra=0 / bframes=3 / b_pyramid=2 / b_adapt=1 / b_bias=0 / direct=1 / weightb=1 / open_gop=0 / weightp=2 / keyint=250 / keyint_min=25 / scenecut=40 / intra_refresh=0 / rc_lookahead=40 / rc=abr / mbtree=1 / bitrate=2560 / ratetol=1.0 / qcomp=0.60 / qpmin=0 / qpmax=69 / qpstep=4 / vbv_maxrate=3000 / vbv_bufsize=600 / nal_hrd=none / ip_ratio=1.40 / aq=1:1.00
  36. Default                        : Yes
  37. Forced                         : No

  38. Audio #1
  39. ID                             : 2
  40. Format                         : AC-3
  41. Format/Info                    : Audio Coding 3
  42. Mode extension                 : CM (complete main)
  43. Format settings, Endianness    : Big
  44. Muxing mode                    : Header stripping
  45. Codec ID                       : A_AC3
  46. Duration                       : 1h 50mn
  47. Bit rate mode                  : Constant
  48. Bit rate                       : 384 Kbps
  49. Channel(s)                     : 3 channels
  50. Channel positions              : Front: L R, LFE
  51. Sampling rate                  : 48.0 KHz
  52. Bit depth                      : 16 bits
  53. Compression mode               : Lossy
  54. Stream size                    : 304 MiB (12%)
  55. Title                          : 粤语
  56. Language                       : Chinese
  57. Default                        : Yes
  58. Forced                         : No

  59. Audio #2
  60. ID                             : 3
  61. Format                         : AC-3
  62. Format/Info                    : Audio Coding 3
  63. Mode extension                 : CM (complete main)
  64. Format settings, Endianness    : Big
  65. Muxing mode                    : Header stripping
  66. Codec ID                       : A_AC3
  67. Duration                       : 1h 50mn
  68. Bit rate mode                  : Constant
  69. Bit rate                       : 384 Kbps
  70. Channel(s)                     : 3 channels
  71. Channel positions              : Front: L R, LFE
  72. Sampling rate                  : 48.0 KHz
  73. Bit depth                      : 16 bits
  74. Compression mode               : Lossy
  75. Stream size                    : 304 MiB (12%)
  76. Title                          : 国语
  77. Language                       : Chinese
  78. Default                        : No
  79. Forced                         : No

  80. Text #1
  81. ID                             : 4
  82. Format                         : VobSub
  83. Muxing mode                    : zlib
  84. Codec ID                       : S_VOBSUB
  85. Codec ID/Info                  : The same subtitle format used on DVDs
  86. Title                          : 繁体中文
  87. Language                       : Chinese
  88. Default                        : Yes
  89. Forced                         : No

  90. Text #2
  91. ID                             : 5
  92. Format                         : VobSub
  93. Muxing mode                    : zlib
  94. Codec ID                       : S_VOBSUB
  95. Codec ID/Info                  : The same subtitle format used on DVDs
  96. Title                          : 简体中文
  97. Language                       : Chinese
  98. Default                        : No
  99. Forced                         : No

  100. Text #3
  101. ID                             : 6
  102. Format                         : VobSub
  103. Muxing mode                    : zlib
  104. Codec ID                       : S_VOBSUB
  105. Codec ID/Info                  : The same subtitle format used on DVDs
  106. Title                          : English
  107. Language                       : English
  108. Default                        : No
  109. Forced                         : No
复制代码

下载地址:
游客,如果您要查看本帖隐藏内容请回复

发表于 2015-1-23 14:26 | 显示全部楼层
感谢分享
发表于 2015-1-23 17:32 | 显示全部楼层
一楼图里的慈父笑 sweet~ 才知道这部是取材自卓别林的名作
发表于 2015-1-25 00:11 | 显示全部楼层
多谢分享!
发表于 2015-1-25 00:40 | 显示全部楼层
谢谢分享!!
发表于 2015-1-25 14:39 | 显示全部楼层
谢谢提供这个电影的下载
发表于 2015-1-25 16:34 | 显示全部楼层
这部片子很有意义~谢谢!
发表于 2015-1-25 19:42 | 显示全部楼层
很偏愛這部電影
发表于 2015-1-26 14:59 | 显示全部楼层
最爱的电影之一,每次看到结尾哥哥送走明仔后那一回头的表情,眼泪就止不住地流。
发表于 2015-1-26 18:32 | 显示全部楼层
感谢分享!
发表于 2015-1-27 12:06 | 显示全部楼层
我喜歡這套戲
发表于 2015-1-31 12:54 | 显示全部楼层
哥哥的作品里面特别偏爱的一部。
发表于 2015-2-9 02:46 | 显示全部楼层
谢谢分享!!!
发表于 2015-2-11 21:49 | 显示全部楼层
谢谢分享!!!
发表于 2015-2-15 15:22 | 显示全部楼层
喜欢哥哥为这部电影写的歌。
您需要登录后才可以回帖 登录 | 注册 新浪微博登陆

本版积分规则

手机客户端|小黑屋|Archiver|QQ群|关于我们|联系方式| 荣光无限|沪ICP备09096540号-1     

© 2002-2018 荣光无限 - 张国荣歌影迷网   版权所有

快速回复 返回顶部 返回列表