荣光无限论坛

找回密码
注册

扫一扫,访问微社区

新浪微博登陆

只需一步, 快速开始

搜索
热搜: 邀请 充值 邮箱
查看: 2993|回复: 47
收起左侧

[电影剧集] 1988. 杀之恋 (DVDRip.香港三区) [1.82GB]

[复制链接]
发表于 2015-3-12 11:46 | 显示全部楼层 |阅读模式

马上注册,结交更多同道中人,享用更多功能,让你轻松融入哥迷大家庭。

您需要 登录 才可以下载或查看,没有帐号?注册 新浪微博登陆

x
爱情似一幅风景画。美术总监戚近荣夜深行车,途中险撞一清丽脱俗名叫楚红的女子。自此之后,戚念念不忘,四处打听其下落。在探知红乃恶势力头子黄锦荣的情妇并受其操纵后,戚决意救红脱离黄的魔掌。
星卫HD电视台播出过《杀之恋》的高清版,但台标、水印等都影响画面,这样的版本本站不收藏,不提供分享。本资源是由香港出版DVD转制的。

Fatal_Love.jpg

中文名:杀之恋
外文名:Fatal Love
出 品:新艺城影业有限公司
发 行:金公主娱乐有限公司[香港]
地 区:中国香港
导 演:梁普智(PoChih Leong)
主 演:张国荣,钟楚红,柏安妮,黄锦燊
类 型:爱情片,惊悚片
上 映:1988年
对 白:粤语
色 彩:彩色
主题曲:浓情

编码信息:
  1. General
  2. Unique ID                      : 253928936724499655613003565203859830285 (0xBF08EF2E2E46A1469215FAF81671F60D)
  3. Format                         : Matroska
  4. Format version                 : Version 4 / Version 2
  5. File size                      : 1.83 GiB
  6. Duration                       : 1h 28mn
  7. Overall bit rate               : 2 949 Kbps
  8. Movie name                     : 殺之戀 (1988)
  9. Encoded date                   : UTC 2010-02-22 21:41:31
  10. Writing application            : mkvmerge v5.9.0 ('On The Loose') built on Dec  9 2012 15:37:01
  11. Writing library                : libebml v1.3.0 + libmatroska v1.4.0

  12. Video
  13. ID                             : 1
  14. Format                         : AVC
  15. Format/Info                    : Advanced Video Codec
  16. Format profile                 : Main@L3.1
  17. Format settings, CABAC         : Yes
  18. Format settings, ReFrames      : 4 frames
  19. Muxing mode                    : Header stripping
  20. Codec ID                       : V_MPEG4/ISO/AVC
  21. Duration                       : 1h 28mn
  22. Bit rate                       : 2 565 Kbps
  23. Width                          : 1 024 pixels
  24. Height                         : 768 pixels
  25. Display aspect ratio           : 4:3
  26. Frame rate mode                : Constant
  27. Frame rate                     : 29.970 fps
  28. Color space                    : YUV
  29. Chroma subsampling             : 4:2:0
  30. Bit depth                      : 8 bits
  31. Scan type                      : Progressive
  32. Bits/(Pixel*Frame)             : 0.109
  33. Stream size                    : 1.56 GiB (85%)
  34. Writing library                : x264 core 116 r2019 9cc407d
  35. Encoding settings              : cabac=1 / ref=3 / deblock=1:0:0 / analyse=0x1:0x111 / me=hex / subme=6 / psy=1 / psy_rd=1.00:0.00 / mixed_ref=1 / me_range=16 / chroma_me=1 / trellis=1 / 8x8dct=0 / cqm=0 / deadzone=21,11 / fast_pskip=1 / chroma_qp_offset=-2 / threads=3 / sliced_threads=0 / nr=0 / decimate=1 / interlaced=0 / bluray_compat=0 / constrained_intra=0 / bframes=3 / b_pyramid=2 / b_adapt=1 / b_bias=0 / direct=1 / weightb=1 / open_gop=0 / weightp=2 / keyint=250 / keyint_min=25 / scenecut=40 / intra_refresh=0 / rc_lookahead=40 / rc=abr / mbtree=1 / bitrate=2565 / ratetol=1.0 / qcomp=0.60 / qpmin=0 / qpmax=69 / qpstep=4 / vbv_maxrate=3000 / vbv_bufsize=600 / nal_hrd=none / ip_ratio=1.40 / aq=1:1.00
  36. Default                        : Yes
  37. Forced                         : No

  38. Audio #1
  39. ID                             : 2
  40. Format                         : AC-3
  41. Format/Info                    : Audio Coding 3
  42. Mode extension                 : CM (complete main)
  43. Format settings, Endianness    : Big
  44. Muxing mode                    : Header stripping
  45. Codec ID                       : A_AC3
  46. Duration                       : 1h 28mn
  47. Bit rate mode                  : Constant
  48. Bit rate                       : 192 Kbps
  49. Channel(s)                     : 2 channels
  50. Channel positions              : Front: L R
  51. Sampling rate                  : 48.0 KHz
  52. Bit depth                      : 16 bits
  53. Compression mode               : Lossy
  54. Stream size                    : 122 MiB (7%)
  55. Title                          : 粤语
  56. Language                       : Chinese
  57. Default                        : Yes
  58. Forced                         : No

  59. Audio #2
  60. ID                             : 3
  61. Format                         : AC-3
  62. Format/Info                    : Audio Coding 3
  63. Mode extension                 : CM (complete main)
  64. Format settings, Endianness    : Big
  65. Muxing mode                    : Header stripping
  66. Codec ID                       : A_AC3
  67. Duration                       : 1h 28mn
  68. Bit rate mode                  : Constant
  69. Bit rate                       : 192 Kbps
  70. Channel(s)                     : 2 channels
  71. Channel positions              : Front: L R
  72. Sampling rate                  : 48.0 KHz
  73. Bit depth                      : 16 bits
  74. Compression mode               : Lossy
  75. Stream size                    : 122 MiB (7%)
  76. Title                          : 国语
  77. Language                       : Chinese
  78. Default                        : No
  79. Forced                         : No

  80. Text #1
  81. ID                             : 4
  82. Format                         : VobSub
  83. Muxing mode                    : zlib
  84. Codec ID                       : S_VOBSUB
  85. Codec ID/Info                  : The same subtitle format used on DVDs
  86. Title                          : 简体中文
  87. Language                       : Chinese
  88. Default                        : Yes
  89. Forced                         : No

  90. Text #2
  91. ID                             : 5
  92. Format                         : VobSub
  93. Muxing mode                    : zlib
  94. Codec ID                       : S_VOBSUB
  95. Codec ID/Info                  : The same subtitle format used on DVDs
  96. Title                          : 繁体中文
  97. Language                       : Chinese
  98. Default                        : No
  99. Forced                         : No

  100. Text #3
  101. ID                             : 6
  102. Format                         : VobSub
  103. Muxing mode                    : zlib
  104. Codec ID                       : S_VOBSUB
  105. Codec ID/Info                  : The same subtitle format used on DVDs
  106. Title                          : English
  107. Language                       : English
  108. Default                        : No
  109. Forced                         : No
复制代码

下载地址:

游客,如果您要查看本帖隐藏内容请回复


 楼主| 发表于 2015-3-12 13:18 | 显示全部楼层
回复@空谷悠然: 请使用邀请码:ks8yi1

1197

粉丝

798

关注

7863

微博
发表于 2015-3-12 13:18 | 显示全部楼层
小编好 请问现在如何注册荣光无限的网站 刚刚注册时显示说目前禁止注册
 楼主| 发表于 2015-3-12 13:18 | 显示全部楼层
回复@空谷悠然: 请通过以下链接完成注册:http://t.cn/Rwd5UAl

1197

粉丝

798

关注

7863

微博
发表于 2015-3-12 13:18 | 显示全部楼层
回复@荣光无限LCFC:显示的还是不允许?
发表于 2015-3-12 14:08 | 显示全部楼层
哥哥还是像红姑的弟弟多一点哈哈哈
发表于 2015-3-12 17:04 | 显示全部楼层
是回复了就可以下载吗?
发表于 2015-3-12 20:52 | 显示全部楼层
哥哥与红姑~~
发表于 2015-3-13 00:10 | 显示全部楼层
老大的宝贝真多,太感谢了,造福大家。
发表于 2015-3-13 08:56 | 显示全部楼层
多谢分享~这就下载抱走!
发表于 2015-3-13 11:59 | 显示全部楼层
喜歡哥哥的電影~~
发表于 2015-3-15 19:10 | 显示全部楼层
感谢有心人的分享。
发表于 2015-3-16 00:02 | 显示全部楼层
比我下载的清晰  果断下载
发表于 2015-3-20 15:52 | 显示全部楼层
谢谢分享!!!
发表于 2015-4-5 17:21 | 显示全部楼层
谢谢分享!
您需要登录后才可以回帖 登录 | 注册 新浪微博登陆

本版积分规则

手机客户端|小黑屋|Archiver|QQ群|关于我们|联系方式| 荣光无限|沪ICP备09096540号-1     

© 2002-2018 荣光无限 - 张国荣歌影迷网   版权所有

快速回复 返回顶部 返回列表