荣光无限论坛

找回密码
注册

扫一扫,访问微社区

新浪微博登陆

只需一步, 快速开始

搜索
热搜: 邀请 充值 邮箱
查看: 2346|回复: 49
收起左侧

[电影剧集] 1982. 烈火青春 (DVDRip.日本二区) [2.05GB]

[复制链接]
发表于 2015-3-18 16:56 | 显示全部楼层 |阅读模式

马上注册,结交更多同道中人,享用更多功能,让你轻松融入哥迷大家庭。

您需要 登录 才可以下载或查看,没有帐号?注册 新浪微博登陆

x
nomad.jpg

电影片名:烈火青春
英文名称:The Nomad
导  演:谭家明、唐基明编  剧:陈韵文,陈冠中,方令正,邱刚健,谭家明
主要演员:张国荣,夏文汐,汤镇业,叶童影片类型:爱情 / 剧情
电影片长:96 min
国家地区:中国香港
对白语言:粤语
电影色彩:彩色
制作公司:世纪影业有限公司 Century Motion Picture & Dist. Co. Ltd. [香港]
上映日期:1982年11月26日 [中国香港]

剧情介绍:
上世纪八十年代初的香港,四个无所事事的青年结成死党,重复着寻找爱情寻找伙伴的青春游戏。他们细致而悠然地活着,城市的世俗与他们无关。他们的爱情中没有争执,没有嫉妒,没有困扰,情欲是唯一的主题——有何不可呢?谁说最原始的不是最单纯?当然,导演不会甘于沉溺在这样的虚无中,他还是要提醒你,肉体的欢愉背后,未尝不是危机暗涌。他们中的一对被象征着青春中无可挽回的失误的“赤军”杀死,而另一对则侥幸活了下来,去寻找梦想的符号:阿拉伯。

编码信息:
  1. General
  2. Unique ID                      : 236960089338382894271127784408168032312 (0xB244DA693A47B98DA646161C744C6838)
  3. Format                         : Matroska
  4. Format version                 : Version 1
  5. File size                      : 2.06 GiB
  6. Duration                       : 1h 32mn
  7. Overall bit rate               : 3 200 Kbps
  8. Encoded date                   : UTC 2009-05-26 07:51:16
  9. Writing application            : mkvmerge v2.1.0 ('Another Place To Fall') built on Aug 19 2007 13:40:07
  10. Writing library                : libebml v0.7.7 + libmatroska v0.8.1

  11. Video
  12. ID                             : 1
  13. Format                         : AVC
  14. Format/Info                    : Advanced Video Codec
  15. Format profile                 : High@L5.1
  16. Format settings, CABAC         : Yes
  17. Format settings, ReFrames      : 5 frames
  18. Codec ID                       : V_MPEG4/ISO/AVC
  19. Bit rate                       : 2 428 Kbps
  20. Width                          : 704 pixels
  21. Height                         : 472 pixels
  22. Display aspect ratio           : 16:9
  23. Original display aspect ratio  : 3:2
  24. Frame rate mode                : Variable
  25. Original frame rate            : 23.976 fps
  26. Color space                    : YUV
  27. Chroma subsampling             : 4:2:0
  28. Bit depth                      : 8 bits
  29. Scan type                      : Progressive
  30. Bits/(Pixel*Frame)             : 0.305
  31. Writing library                : x264 core 58 r798M 17e5dac
  32. Encoding settings              : cabac=1 / ref=5 / deblock=1:-2:-1 / analyse=0x3:0x113 / me=umh / subme=6 / me-prepass=0 / brdo=1 / mixed_ref=1 / me_range=16 / chroma_me=1 / trellis=1 / 8x8dct=1 / cqm=0 / deadzone=21,11 / chroma_qp_offset=0 / threads=12 / nr=0 / decimate=1 / mbaff=0 / bframes=16 / b_pyramid=1 / b_adapt=1 / b_bias=0 / direct=3 / wpredb=1 / bime=1 / keyint=250 / keyint_min=25 / scenecut=40(pre) / rc=2pass / bitrate=2428 / ratetol=1.0 / rceq='blurCplx^(1-qComp)' / qcomp=1.00 / qpmin=10 / qpmax=51 / qpstep=4 / cplxblur=20.0 / qblur=0.5 / ip_ratio=1.40 / pb_ratio=1.30 / aq=1:0.5:13.0
  33. Language                       : English
  34. Default                        : Yes
  35. Forced                         : No

  36. Audio #1
  37. ID                             : 2
  38. Format                         : AC-3
  39. Format/Info                    : Audio Coding 3
  40. Mode extension                 : CM (complete main)
  41. Format settings, Endianness    : Big
  42. Codec ID                       : A_AC3
  43. Duration                       : 1h 32mn
  44. Bit rate mode                  : Constant
  45. Bit rate                       : 384 Kbps
  46. Channel(s)                     : 6 channels
  47. Channel positions              : Front: L C R, Side: L R, LFE
  48. Sampling rate                  : 48.0 KHz
  49. Bit depth                      : 16 bits
  50. Compression mode               : Lossy
  51. Stream size                    : 253 MiB (12%)
  52. Title                          : 粤语DD5.1
  53. Language                       : Chinese
  54. Default                        : Yes
  55. Forced                         : No

  56. Audio #2
  57. ID                             : 3
  58. Format                         : AC-3
  59. Format/Info                    : Audio Coding 3
  60. Mode extension                 : CM (complete main)
  61. Format settings, Endianness    : Big
  62. Codec ID                       : A_AC3
  63. Duration                       : 1h 32mn
  64. Bit rate mode                  : Constant
  65. Bit rate                       : 384 Kbps
  66. Channel(s)                     : 6 channels
  67. Channel positions              : Front: L C R, Side: L R, LFE
  68. Sampling rate                  : 48.0 KHz
  69. Bit depth                      : 16 bits
  70. Compression mode               : Lossy
  71. Stream size                    : 253 MiB (12%)
  72. Title                          : 国语DD5.1
  73. Language                       : Chinese
  74. Default                        : No
  75. Forced                         : No
复制代码

下载地址:
游客,如果您要查看本帖隐藏内容请回复


发表于 2015-3-18 17:13 (来自手机版) | 显示全部楼层
……………………~
发表于 2015-3-18 17:13 | 显示全部楼层
谢谢分享!
发表于 2015-3-18 17:14 (来自手机版) | 显示全部楼层
很喜歡這部戲
发表于 2015-3-18 18:13 | 显示全部楼层
谢谢坛主坚持上传哥哥的电影,大爱!!!

182

粉丝

162

关注

281

微博
发表于 2015-3-18 18:52 | 显示全部楼层
谢谢这么高清的资源分享![心]
发表于 2015-3-18 18:54 | 显示全部楼层
谢谢分享
据说日版的多了三四分钟镜头,看看。
发表于 2015-3-18 21:14 | 显示全部楼层
[心]//@Leslie_心跳呼吸正常: //@小城_故事a:转发微博

26

粉丝

37

关注

435

微博
发表于 2015-3-18 23:41 | 显示全部楼层
太帅[心]
发表于 2015-3-19 09:23 | 显示全部楼层
俺又来收藏宝贝资源了~谢谢分享!
发表于 2015-3-19 18:21 | 显示全部楼层
年輕哥哥........
发表于 2015-3-19 18:22 | 显示全部楼层
年輕哥哥.....
发表于 2015-3-19 23:53 | 显示全部楼层
哥哥演技开始成熟的起点。
发表于 2015-3-20 15:42 | 显示全部楼层
谢谢分享!!!
发表于 2015-4-5 17:20 | 显示全部楼层
谢谢分享!
您需要登录后才可以回帖 登录 | 注册 新浪微博登陆

本版积分规则

手机客户端|小黑屋|Archiver|QQ群|关于我们|联系方式| 荣光无限|沪ICP备09096540号-1     

© 2002-2018 荣光无限 - 张国荣歌影迷网   版权所有

快速回复 返回顶部 返回列表