荣光无限论坛

找回密码
注册

扫一扫,访问微社区

新浪微博登陆

只需一步, 快速开始

搜索
热搜: 邀请 充值 邮箱
查看: 2318|回复: 9
收起左侧

2002. 黄凯芹 LONG TIME NO SEE 演唱会 (DVDRip.x264.AC3) [2.36GB]

[复制链接]
发表于 2015-3-13 10:41 | 显示全部楼层 |阅读模式
黄凯芹 LONG TIME NO SEE 演唱会

久违香港乐坛七年的黄凯芹,于2002年10月中在香港举行两场演唱会,不但很多歌迷前来捧场,更有刘小慧、李克勤、汤宝如及黎瑞恩等嘉宾出席及同台献唱。此外,他当年的好拍档周慧敏更首度开金口,与Chris合唱了「情未了」,成为整晚高潮。

曲目列表:

DISC 1
01. Overture + 再遇
02. 好久不见
03. Composition Medley [谁明白我 + 感受 + 情海]
04. 情深缘浅
05. R & B Medley [雨季不再来 + 倾心]
06. 一个人睡
07. 伴侣
08. 幻影
09. 流离所爱
10. 情未了(汤宝如合唱)
11. 教我如何不爱他(刘小慧合唱)

DISC 2
01. 没结果的开始(音乐)
02. 焚情
03. 没结果的一些感情
04. 伤尽我心的说话
05. Amazing Grace
06. 若生命等候
07. Jazz Medley : 妳最喜欢的歌 + Hello Merry X'mas +My Baby + Everytime You Go Away
08. 今夜可否留低
09. 难忘记
10. 蓝月亮(李克勤合唱)
11. 流离所爱(黎瑞恩合唱)

DISC 3
01. 请您记住我
02. 情未了(周慧敏合唱)
03. I Believe
04. Unplugged Medley : 青葱岁月 + 蝶恋花 + 问青空 + 平常心
05. 雨中的恋人们
06. 珍惜这一晚
07. 请您回来
08. 伤感的恋人
09. 不舍也为爱
10. 再遇II

编码信息:
  1. General
  2. Unique ID                      : 181358181419490686694048341557720293499 (0x887050B29EFD6DA781E9D1177BA6A07B)
  3. Format                         : Matroska
  4. Format version                 : Version 4 / Version 2
  5. File size                      : 2.37 GiB
  6. Duration                       : 2h 44mn
  7. Overall bit rate               : 2 059 Kbps
  8. Movie name                     : 黃凱芹 LONG TIME NO SEE 演唱會 2002
  9. Encoded date                   : UTC 2010-02-22 21:41:31
  10. Writing application            : mkvmerge v5.9.0 ('On The Loose') built on Dec  9 2012 15:37:01
  11. Writing library                : libebml v1.3.0 + libmatroska v1.4.0

  12. Video
  13. ID                             : 1
  14. Format                         : MPEG-4 Visual
  15. Format profile                 : Advanced Simple@L5
  16. Format settings, BVOP          : Yes
  17. Format settings, QPel          : No
  18. Format settings, GMC           : No warppoints
  19. Format settings, Matrix        : Default (MPEG)
  20. Codec ID                       : V_MS/VFW/FOURCC / XVID
  21. Codec ID/Hint                  : XviD
  22. Duration                       : 2h 44mn
  23. Bit rate                       : 1 826 Kbps
  24. Width                          : 720 pixels
  25. Height                         : 544 pixels
  26. Display aspect ratio           : 4:3
  27. Frame rate mode                : Constant
  28. Frame rate                     : 29.970 fps
  29. Color space                    : YUV
  30. Chroma subsampling             : 4:2:0
  31. Bit depth                      : 8 bits
  32. Scan type                      : Progressive
  33. Compression mode               : Lossy
  34. Bits/(Pixel*Frame)             : 0.156
  35. Stream size                    : 2.10 GiB (89%)
  36. Writing library                : XviD 1.2.1 (UTC 2008-12-04)
  37. Default                        : Yes
  38. Forced                         : No

  39. Audio
  40. ID                             : 2
  41. Format                         : AC-3
  42. Format/Info                    : Audio Coding 3
  43. Mode extension                 : CM (complete main)
  44. Format settings, Endianness    : Big
  45. Muxing mode                    : Header stripping
  46. Codec ID                       : A_AC3
  47. Duration                       : 2h 44mn
  48. Bit rate mode                  : Constant
  49. Bit rate                       : 192 Kbps
  50. Channel(s)                     : 2 channels
  51. Channel positions              : Front: L R
  52. Sampling rate                  : 48.0 KHz
  53. Bit depth                      : 16 bits
  54. Compression mode               : Lossy
  55. Stream size                    : 226 MiB (9%)
  56. Language                       : Chinese
  57. Default                        : Yes
  58. Forced                         : No
复制代码

购买主题 已有 3 人购买  本主题需向作者支付 100 元荣币 才能浏览
发表于 2015-3-14 19:06 | 显示全部楼层
谢谢分享,非常喜欢
发表于 2015-6-26 16:03 | 显示全部楼层
喜欢他的歌
发表于 2015-7-2 16:05 | 显示全部楼层
有这张DVD,跟不上现在的时代了
发表于 2015-10-29 22:41 | 显示全部楼层
呵呵 谢了哈  辛苦
发表于 2015-11-4 18:50 | 显示全部楼层
chris的歌很好听,谢谢分享。
发表于 2016-4-10 16:46 | 显示全部楼层
一直觉得黄凯芹不输四大也不输克勤
发表于 2016-11-24 18:30 | 显示全部楼层
谢谢分享!!
头像被屏蔽
发表于 2017-3-24 03:20 | 显示全部楼层
提示: 作者被禁止或删除 内容自动屏蔽
发表于 2017-4-2 06:29 | 显示全部楼层
好声音,好听,谢谢分享。
您需要登录后才可以回帖 登录 | 注册 新浪微博登陆

本版积分规则

手机客户端|小黑屋|Archiver|QQ群|关于我们|联系方式| 荣光无限|沪ICP备09096540号-1     

© 2002-2018 荣光无限 - 张国荣歌影迷网   版权所有

快速回复 返回顶部 返回列表