荣光无限论坛

找回密码
注册

扫一扫,访问微社区

新浪微博登陆

只需一步, 快速开始

搜索
热搜: 邀请 充值 邮箱
查看: 824|回复: 2
收起左侧

1985. 邓丽君NHK日本武道馆演唱会 (DVDRip.x264.AC3) [2.1GB]

[复制链接]
发表于 2015-6-28 01:20 | 显示全部楼层 |阅读模式
邓丽君NHK演唱会(1985.12.15 日本武道馆)

[attach]74399[/attach]

专辑介绍:

1985年12月15日邓丽君日本武道馆演唱会,NHK录制。这场演唱会是邓丽君在日本举办的唯一演唱会(也是她的最后一次公开个人演唱会)的盛况,整场演唱会一直维持着高水准的演绎和快乐的气氛,人生四十二载唯一一次婚纱演绎。让我们一同缅怀华语歌坛最耀眼的巨星邓丽君女士。

专辑曲目:

01. 空港
02. 组曲~ ァカシァの梦~ + ふるさとはざこごすか~ + 女の生きがい~ + 雪化妆~ + 夜のフェリ一ボ一ト
03. 船歌
04. 海韵
05. 何日君再来
06. 釜山港ヘ归れ
07. 浪花节だょ人生は
08. 北国の春
09. 夜来香
10. I Just Called To Say I Love You
11. つぐない
12. 乱されて
13. ミツドナィト.レクィェム
14. 爱人
15. ノスタルヅァ
16. 今でも
17. ヅエルソミ一ナの步いた道
18. 观众点唱:(1) 梅花 / (2) 漫步人生路 / (3) 东山飘雨西山晴 / (4) 你怎么说
19. 爱人 (再见!)

编码信息:
  1. General
  2. Unique ID                      : 250713713356428072467016773300389856671 (0xBC9DB46DEA2E5E7B939D387D57DEC59F)
  3. Format                         : Matroska
  4. Format version                 : Version 4 / Version 2
  5. File size                      : 2.11 GiB
  6. Duration                       : 1h 31mn
  7. Overall bit rate               : 3 313 Kbps
  8. Movie name                     : Teresa Tang NHK Concert In Tokyo 1985
  9. Encoded date                   : UTC 2010-02-22 21:41:31
  10. Writing application            : mkvmerge v5.9.0 ('On The Loose') built on Dec  9 2012 15:37:01
  11. Writing library                : libebml v1.3.0 + libmatroska v1.4.0

  12. Video
  13. ID                             : 1
  14. Format                         : AVC
  15. Format/Info                    : Advanced Video Codec
  16. Format profile                 : Main@L3.0
  17. Format settings, CABAC         : Yes
  18. Format settings, ReFrames      : 4 frames
  19. Muxing mode                    : Header stripping
  20. Codec ID                       : V_MPEG4/ISO/AVC
  21. Bit rate                       : 2 608 Kbps
  22. Width                          : 720 pixels
  23. Height                         : 544 pixels
  24. Display aspect ratio           : 4:3
  25. Frame rate mode                : Variable
  26. Original frame rate            : 29.970 fps
  27. Color space                    : YUV
  28. Chroma subsampling             : 4:2:0
  29. Bit depth                      : 8 bits
  30. Scan type                      : Progressive
  31. Writing library                : x264 core 116 r2019 9cc407d
  32. Encoding settings              : cabac=1 / ref=3 / deblock=1:0:0 / analyse=0x1:0x111 / me=hex / subme=5 / psy=1 / psy_rd=1.00:0.00 / mixed_ref=1 / me_range=16 / chroma_me=1 / trellis=1 / 8x8dct=0 / cqm=0 / deadzone=21,11 / fast_pskip=1 / chroma_qp_offset=0 / threads=3 / sliced_threads=0 / nr=0 / decimate=1 / interlaced=0 / bluray_compat=0 / constrained_intra=0 / bframes=3 / b_pyramid=2 / b_adapt=1 / b_bias=0 / direct=1 / weightb=1 / open_gop=0 / weightp=2 / keyint=250 / keyint_min=25 / scenecut=40 / intra_refresh=0 / rc_lookahead=40 / rc=crf / mbtree=1 / crf=3.0 / qcomp=0.60 / qpmin=0 / qpmax=69 / qpstep=4 / vbv_maxrate=2860 / vbv_bufsize=572 / crf_max=0.0 / nal_hrd=none / ip_ratio=1.40 / aq=1:1.00
  33. Default                        : Yes
  34. Forced                         : No

  35. Audio #1
  36. ID                             : 2
  37. Format                         : AC-3
  38. Format/Info                    : Audio Coding 3
  39. Mode extension                 : CM (complete main)
  40. Format settings, Endianness    : Big
  41. Muxing mode                    : Header stripping
  42. Codec ID                       : A_AC3
  43. Duration                       : 1h 31mn
  44. Bit rate mode                  : Constant
  45. Bit rate                       : 448 Kbps
  46. Channel(s)                     : 6 channels
  47. Channel positions              : Front: L C R, Side: L R, LFE
  48. Sampling rate                  : 48.0 KHz
  49. Bit depth                      : 16 bits
  50. Compression mode               : Lossy
  51. Stream size                    : 292 MiB (14%)
  52. Language                       : Japanese
  53. Default                        : Yes
  54. Forced                         : No

  55. Audio #2
  56. ID                             : 3
  57. Format                         : AC-3
  58. Format/Info                    : Audio Coding 3
  59. Mode extension                 : CM (complete main)
  60. Format settings, Endianness    : Big
  61. Muxing mode                    : Header stripping
  62. Codec ID                       : A_AC3
  63. Duration                       : 1h 31mn
  64. Bit rate mode                  : Constant
  65. Bit rate                       : 192 Kbps
  66. Channel(s)                     : 2 channels
  67. Channel positions              : Front: L R
  68. Sampling rate                  : 48.0 KHz
  69. Bit depth                      : 16 bits
  70. Compression mode               : Lossy
  71. Stream size                    : 125 MiB (6%)
  72. Language                       : Japanese
  73. Default                        : No
  74. Forced                         : No
复制代码

购买主题 已有 1 人购买  本主题需向作者支付 100 元荣币 才能浏览
发表于 2015-7-11 15:58 | 显示全部楼层
发表于 2017-4-3 07:15 | 显示全部楼层
原来邓丽君的歌好多都来自日本的。
您需要登录后才可以回帖 登录 | 注册 新浪微博登陆

本版积分规则

手机客户端|小黑屋|Archiver|QQ群|关于我们|联系方式| 荣光无限|沪ICP备09096540号-1     

© 2002-2018 荣光无限 - 张国荣歌影迷网   版权所有

快速回复 返回顶部 返回列表