荣光无限论坛

找回密码
注册

扫一扫,访问微社区

新浪微博登陆

只需一步, 快速开始

搜索
热搜: 邀请 充值 邮箱
查看: 3471|回复: 47
收起左侧

1989. 陈慧娴几时再见演唱会 (LDRip.x264.MP3) [2.3GB]

[复制链接]
发表于 2009-6-9 11:29 | 显示全部楼层 |阅读模式
陈慧娴几时再见演唱会

1989年8月28日至9月2日,陈慧娴在香港红馆举办了6场“几时再见”演唱会。因为此时她已经宣布了即将退出歌坛去美国留学,因此这是她的第一次个人演唱会,却也是她的告别演唱会。当时刚满24岁的陈慧娴正值歌唱事业的最颠峰,离开乐坛让人感觉伤感。这场演唱会中陈慧娴的表现是非常出色的,现场演唱的音准、音色、气息几乎无可挑剔,加上真情流露、服饰精美,至今仍是红馆演唱会的一次经典之作。
我始终认为,陈慧娴的现场演唱功力是香港女歌手中顶尖的,更是大多的香港新生代女歌手望尘莫及的。最近的还有2008年的活出生命II演唱会,可以领略一下她的现场演绎水准。

这场演唱会的DVD和VCD,在曲目上都有出入,各自都有对方不曾收录的片段,与哥哥的告别演唱会一样,都没有一个完整的演唱会视听版本,非常的遗憾。
DVD发行版剪辑成了卡拉OK版,视听版的VCD来自于LD发行版本。

欣赏版的视频很有珍藏价值,陈慧娴亦是我最喜爱的女歌手,因此特意制作了这个经典的演唱会的视频。
我发布的这个版本是把欣赏版的LD转制为双DVD5,然后制作为 DVDRip 视频。音频部分,因为转制为DVD时,把LPCM音频压缩成了384K的MP2,所以现在音频重新压制为256K的MP3,没有5.1声道的音频。这已经比目前网上任何一个压缩版本都清晰了,目前网络上还没有类似的版本发布,可以说是独家的。

[attach]63855[/attach]

曲目列表:

01. Opening/地球大追踪
02. 忧郁,你好
03. 夜机
04. 痴情意外
05. 反叛
06. 花店
07. 玻璃窗的爱
08. 跳舞街
09. Yesterday Once More
10. 逝去的诺言
11. 变变变/贪贪贪
12. 夜半惊魂
13. 傻女
14. Love Me Once Again
15. 去吧
16. 千千阕歌
17. 人生何处不相逢
18. 忘记悲伤
19. 几时再见

编码信息:
  1. General
  2. Complete name : 陈慧娴几时再见演唱会.avi
  3. Format : AVI
  4. Format/Info : Audio Video Interleave
  5. File size : 2.31 GiB
  6. Duration : 1h 45mn
  7. Overall bit rate : 3 142 Kbps
  8. Writing application : MEncoder SVN-r33036(20110307-gcc4.5.1)
  9. Writing library : Boilsoft AVI tool build 1/release

  10. Video #0
  11. ID : 0
  12. Format : AVC
  13. Format/Info : Advanced Video Codec
  14. Format profile : Main@L3.0
  15. Format settings, CABAC : Yes
  16. Format settings, ReFrames : 4 frames
  17. Codec ID : h264
  18. Duration : 1h 45mn
  19. Bit rate : 2 875 Kbps
  20. Width : 720 pixels
  21. Height : 544 pixels
  22. Display aspect ratio : 4:3
  23. Frame rate : 29.970 fps
  24. Color space : YUV
  25. Chroma subsampling : 4:2:0
  26. Bit depth : 8 bits
  27. Scan type : Progressive
  28. Bits/(Pixel*Frame) : 0.245
  29. Stream size : 2.11 GiB (91%)

  30. Audio #1
  31. ID : 1
  32. Format : MPEG Audio
  33. Format version : Version 1
  34. Format profile : Layer 3
  35. Mode : Joint stereo
  36. Codec ID : 55
  37. Codec ID/Hint : MP3
  38. Duration : 1h 45mn
  39. Bit rate mode : Constant
  40. Bit rate : 256 Kbps
  41. Channel(s) : 2 channels
  42. Sampling rate : 48.0 KHz
  43. Compression mode : Lossy
  44. Stream size : 192 MiB (8%)
  45. Alignment : Split accross interleaves
  46. Interleave, duration : 33 ms (1.00 video frame)
  47. Interleave, preload duration : 500 ms
复制代码


购买主题 已有 14 人购买  本主题需向作者支付 200 元荣币 才能浏览
发表于 2009-6-9 15:22 | 显示全部楼层
我也非常喜欢听陈慧娴的歌,我觉的她的歌声非常有磁性!
发表于 2009-6-9 16:12 | 显示全部楼层
謝樓主分享~~~~
发表于 2009-6-9 16:14 | 显示全部楼层
我也很喜欢陈慧娴的,这唱演唱会我只有引进版的VCD呢!
发表于 2009-6-11 21:46 | 显示全部楼层
我也喜欢她的歌
发表于 2009-6-11 22:59 | 显示全部楼层
一直很喜欢她的千千阙歌,但是听过哥哥的版本后,就不怎么再听女版了,还是很喜欢她
发表于 2009-6-12 04:27 | 显示全部楼层
楼主真好!太喜欢这张LD了
发表于 2009-6-12 23:01 | 显示全部楼层
有多大呀?
我的硬盘只剩下不到1G的空间了。
呵呵,看到了,还行,还能装下!
发表于 2009-6-13 23:41 | 显示全部楼层
这个演唱会找了好多年了,都没找到好的版本,今天终于找到LD的版本了,谢谢楼主分享!
发表于 2009-7-2 19:50 | 显示全部楼层
我特别喜欢她的《夜机》,K歌保留曲目
发表于 2009-7-9 09:47 | 显示全部楼层
我也喜欢,谢谢。。。。
发表于 2009-7-26 19:47 | 显示全部楼层

回复 1F Joseffu 的帖子

来看看
发表于 2009-7-30 03:06 | 显示全部楼层
天衣无缝的声音,多舛的命运.

我喜欢她的很多歌曲.
发表于 2009-7-30 03:07 | 显示全部楼层
那个年代女星的打扮都是以梅艳芳为标杆.


其实陈慧娴适合清丽装扮.
发表于 2009-7-30 10:15 | 显示全部楼层
做这些东西的确很折腾人的

刚看到是老大发的贴   有点吓到

老大说的就肯定顶尖       香港女歌手本来就没几个好的
真不知那个 王×为什么这么红
您需要登录后才可以回帖 登录 | 注册 新浪微博登陆

本版积分规则

手机客户端|小黑屋|Archiver|QQ群|关于我们|联系方式| 荣光无限|沪ICP备09096540号-1     

© 2002-2018 荣光无限 - 张国荣歌影迷网   版权所有

快速回复 返回顶部 返回列表