荣光无限论坛

找回密码
注册

扫一扫,访问微社区

新浪微博登陆

只需一步, 快速开始

搜索
热搜: 邀请 充值 邮箱
查看: 3115|回复: 47
收起左侧

1990. 许冠杰香港情怀90演唱会 (LDRip.x264.DTS) [2.2GB]

[复制链接]
发表于 2012-8-29 17:18 | 显示全部楼层 |阅读模式
论坛不太活跃,从今日开始,独家陆续发布一些我收藏的影音资料,都是很经典的演唱会。除了个别蓝光片源的,基本都是本人购盘压制的,希望大家喜欢。影像部分适当压缩,大多采用 X264 编码,部分采用 XviD,音频尽量直接抽取片源里的声轨,大多为 5.1 声道的 AC-3 格式及 5.1 声道的 DTS 格式。

标题注释,如:LDRip.x264.DTS,意为片源为LD,视频编码为 x264,音频为 DTS;
DVDRip.x264.AC3.DD51,意为片源为 DVD,视频编码为 x264,音频为 5.1 声道的 AC-3,
AC3.2CH 即是双声道(立体声)的 AC-3 音频。因为 AC-3 音频有双声道和 5.1 声道两种,所以以此区分。
部分音频为MP3,大多由LD转制而来。LD声源大多为双声道音频,所以一般编码为 MP3 格式足矣,MP3 全是双声道立体声,因此不再注释是否为多声道。
另外 DTS 音频分为半码(754.5Kbps)和全码(1509Kbps),全码音频速率最高,同视频的1080P编码上限一样(1920*1080 画面),是音频编码的上限。
AC-3 音频速率有很多,双声道的大多是192Kbps,也有 256Kbps 、384Kbps 甚至 448Kbps 的;5.1 声道的起点是 384 Kbps(再低的话无法制成 5.1 声道),更高的有 448Kbps、640Kbps,其中 640Kbps 是AC-3 音频的编码上限。MP3 音频的编码上限是 320Kbps,立体声下限是 32Kbps(再低就是单声道了)。

内行的看一下编码信息,就都明白文件资源的属性了。

从歌神许冠杰开始:许冠杰香港情怀90演唱会

内容介绍:

许冠杰(英文:Samuel Hui,1948年9月6日-),昵称“阿Sam”,生于广东广州,籍贯广东番禺(今广州市),自1970年代起以通俗广东歌词谱下多首乐章,开创香港粤语流行曲的潮流,在香港乐坛被称为“歌神”、“香港乐坛巨星”、“香港流行音乐祖师”和“广东歌鼻祖”。
在许冠杰之前,香港人普遍把广东曲视为低俗作品,是英文歌与国语曲以外的次等选择,直至1971年,毕业于香港大学的许冠杰不避通俗,以广东话写出多首反映社会现况的歌曲,既描述打工仔的无奈,也谈到打麻雀的心情;一些是爱情歌曲,但更多是讽刺时弊和励志作品,推出后受到乐迷推崇,自此广东作品在香港乐坛如雨后春笋。1980年代中期,香港“偶像派”歌手兴起,许冠杰虽然在形象上出新尝试,在歌曲加入摇滚元素,但未获新一代的乐迷青睐,遂渐淡出舞台。1992年他正式宣布退休时,其所属唱片公司推出许冠杰专辑,由当时得令的歌手重唱许氏歌曲,结果大受欢迎,专辑相继推出,牵起第一次许冠杰怀旧热。十多年后,香港经历SARS和香港多位重要歌手逝世后,许冠杰举行复出开演唱会,十万张门券一夜间抢购一空,再次牵起许冠杰热;许冠杰在歌词中折射的哲学,在文化界中广受讨论。许冠杰在香港流行音乐界拥有崇高的地位,亦得到了多位巨星的尊重以及认可,其中包括谭咏麟,张国荣,梅艳芳,张学友等人。
红馆曾经见证了香港歌坛最繁荣的黄金年代。犹记得,从20世纪80年代,许冠杰、徐小凤、谭咏麟、张国荣和梅艳芳等杰出的香港歌手,都曾打破红馆演唱会场数记录,那些动辄便用自己的岁数作为演唱会场数的做法,今天看起来是多么不可思仪。如今,这种好景已成为老歌迷心里永远的怀念。
此版本为完整版本,包括《沧海一声笑》LIVE。片源是当年发行的LD,不过一般LD的音频都是 LPCM(线性脉冲编码调制,非压缩的音频数字化技术)原音双声道,这个音频却是半码(754.5Kbps) DTS 格式的,我也很迷惑,大概是后来重新编制过。

专辑曲目:

01. 星夜
02. Medley: 一生中几许欢笑/锡晒你/共你常为伴/应该要自学
03. 香港制造
04. 青年人
05. Medley: 风中赶路人/无情夜冷风
06. Medley: 哭泣风雨间/是雨?是泪?
07. Medley: 在回忆中/仍是要走/我的心仍属于您/爱是无言
08. Medley: 春梦/断肠梦/天才白痴梦
09. Medley: 夜夜念奴娇/纸船/难忘您/天才白痴往日情/印象
10. 爱情保险
11. 做个自由人
12. Medley: Sealed With A Kiss/知音梦里寻
13. 铁塔凌云
14. 那里是吾家
15. 洋紫荆
16. 同舟共济
17. 这一曲送给您
18. 梨涡浅笑
19. 急流勇退
20. 沧海一声笑
21. 世事如棋

编码信息:
  1. General
  2. Unique ID : 218520623802671674831470171254020091673 (0xA4658A91A393ACFBABE5350DC153AF19)
  3. Format : Matroska
  4. Format version : Version 2
  5. File size : 2.20 GiB
  6. Duration : 1h 53mn
  7. Overall bit rate : 2 783 Kbps
  8. Movie name : 許冠傑香港情懷90演唱會
  9. Encoded date : UTC 2012-08-29 03:52:15
  10. Writing application : mkvmerge v4.3.0 ('Escape from the Island') 编译于 Sep 5 2010 10:30:51
  11. Writing library : libebml v1.0.0 + libmatroska v1.0.0

  12. Video #1
  13. ID : 1
  14. Format : AVC
  15. Format/Info : Advanced Video Codec
  16. Format profile : Main@L3.0
  17. Format settings, CABAC : Yes
  18. Format settings, ReFrames : 4 frames
  19. Muxing mode : Header stripping
  20. Codec ID : V_MPEG4/ISO/AVC
  21. Duration : 1h 53mn
  22. Bit rate : 1 973 Kbps
  23. Width : 720 pixels
  24. Height : 544 pixels
  25. Display aspect ratio : 4:3
  26. Frame rate : 29.970 fps
  27. Color space : YUV
  28. Chroma subsampling : 4:2:0
  29. Bit depth : 8 bits
  30. Scan type : Progressive
  31. Bits/(Pixel*Frame) : 0.168
  32. Stream size : 1.56 GiB (71%)
  33. Writing library : x264 core 116 r2019 9cc407d
  34. Encoding settings : cabac=1 / ref=3 / deblock=1:0:0 / analyse=0x1:0x111 / me=hex / subme=5 / psy=1 / psy_rd=1.00:0.00 / mixed_ref=1 / me_range=16 / chroma_me=1 / trellis=1 / 8x8dct=0 / cqm=0 / deadzone=21,11 / fast_pskip=1 / chroma_qp_offset=0 / threads=3 / sliced_threads=0 / nr=0 / decimate=1 / interlaced=0 / bluray_compat=0 / constrained_intra=0 / bframes=3 / b_pyramid=2 / b_adapt=1 / b_bias=0 / direct=1 / weightb=1 / open_gop=0 / weightp=2 / keyint=250 / keyint_min=25 / scenecut=40 / intra_refresh=0 / rc_lookahead=40 / rc=crf / mbtree=1 / crf=19.0 / qcomp=0.60 / qpmin=0 / qpmax=69 / qpstep=4 / vbv_maxrate=2300 / vbv_bufsize=460 / crf_max=0.0 / nal_hrd=none / ip_ratio=1.40 / aq=1:1.00
  35. Default : Yes
  36. Forced : No

  37. Audio #2
  38. ID : 2
  39. Format : DTS
  40. Format/Info : Digital Theater Systems
  41. Muxing mode : Header stripping
  42. Codec ID : A_DTS
  43. Duration : 1h 53mn
  44. Bit rate mode : Constant
  45. Bit rate : 755 Kbps
  46. Channel(s) : 6 channels
  47. Channel positions : Front: L C R, Side: L R, LFE
  48. Sampling rate : 48.0 KHz
  49. Bit depth : 24 bits
  50. Compression mode : Lossy
  51. Stream size : 612 MiB (27%)
  52. Default : Yes
  53. Forced : No
复制代码

购买主题 已有 16 人购买  本主题需向作者支付 100 元荣币 才能浏览
发表于 2012-8-30 10:40 | 显示全部楼层
坐等下载资源,老大辛苦~
前几天又看了次阿Sam光荣引退汇群星完整版~感触颇多

点评

瑾儿,我没有这个完整版,找机会发给我,行不?  发表于 2012-8-30 14:12
发表于 2012-8-30 14:15 | 显示全部楼层
   老大用心良苦,等待下载,感谢~~~~~~~
发表于 2012-8-30 16:33 | 显示全部楼层
@爱慕110501   好的哇~是1个多G的,估计要传好久,慕慕要等几天了
发表于 2012-10-10 21:29 | 显示全部楼层
本帖最后由 ngweiaun 于 2012-10-11 00:16 编辑

好东西!不过连接似乎死了?山口百惠的也是……

----------

啊,可以下了
发表于 2013-8-20 20:14 | 显示全部楼层
交钱,拿货,下载,看影儿·······老大辛苦了
发表于 2014-9-2 16:10 | 显示全部楼层
支持老歌神呀
发表于 2014-9-9 22:50 | 显示全部楼层
经典好好收藏,谢谢分享
发表于 2014-10-3 20:28 | 显示全部楼层
经典的东西要顶
发表于 2014-12-30 21:00 | 显示全部楼层
謝謝分享經典演唱會﹗
发表于 2015-5-24 00:55 | 显示全部楼层
(我的偶像:许冠杰!)
发表于 2015-6-24 14:00 | 显示全部楼层
曾经的歌神
发表于 2015-8-3 15:33 | 显示全部楼层
谢谢楼主分享,等我的荣币够了再来!
发表于 2015-9-25 16:06 | 显示全部楼层
这个要看看,很难见到许歌神的演唱会碟子,这场很出名,不能错过
发表于 2015-11-22 19:17 | 显示全部楼层
踏破铁鞋,居然在这里找到,跪谢楼主!!
您需要登录后才可以回帖 登录 | 注册 新浪微博登陆

本版积分规则

手机客户端|小黑屋|Archiver|QQ群|关于我们|联系方式| 荣光无限|沪ICP备09096540号-1     

© 2002-2018 荣光无限 - 张国荣歌影迷网   版权所有

快速回复 返回顶部 返回列表