荣光无限论坛

找回密码
注册

扫一扫,访问微社区

新浪微博登陆

只需一步, 快速开始

搜索
热搜: 邀请 充值 邮箱
查看: 6617|回复: 12
收起左侧

1995. 宝丽金25周年演唱会 (LDRip.x264.MP3) [1.85GB]

[复制链接]
发表于 2012-11-1 17:26 | 显示全部楼层 |阅读模式
资源简介:
1995年,如日中天的宝丽金公司,如日中天的宝丽金群星,组成华语乐坛的最强阵容,为全世界献上了最高级别的华语流行盛宴。这间集合了当时数一数二顶尖歌手的唱片公司,在整个香港流行音乐辉煌时期一直占据着极其重要的位置,而值其二十五周年之际所举行的这场演唱会,更是集合了当时的顶尖大牌明星,如谭咏麟、张学友、黎明、关淑怡、草蜢、陈慧娴等。开场群星所演唱的作品为全世界歌唱拉开了本次演唱会的序幕,随后草蜢出场,带来熟悉的《没名字的歌无名字的你》和当时推出的一首新歌《危情追踪》。黎明之后,尚显青春亮丽的玉女歌手周慧敏登场,一首《红颜知己》,虽有动作生硬之嫌,却不掩其青春亮丽之风。关淑怡在那时候也算得上风头人物,两首歌,彰显其演唱功底。接着一连串合作歌曲群星纷纷登台陈慧娴、黎瑞恩、汤宝如、黄馨平都唱出当年的火红歌曲。张学友《离开以后》、《我等到花儿也谢了》、及合唱歌曲等大出风头,已尽显歌神架势。整场演唱会高潮段是宝丽金至尊三人组的情歌对唱,谭咏麟、张学友、黎明各唱二首歌曲之后落下帷幕。

曲目列表:
01.为全世界歌唱 (宝丽金群星)
02. 没名字的歌 无名字的你 (黎明)
03. 危情追踪 (黎明)
04. 红颜知已 (周慧敏)
05. 金曲25年 Medley: Please refer to insert for details
06. 怎么天生不是女人 (草蜢)
07. 我们都是这样失恋的 (草蜢)
08. 梦伴 (关淑怡)
09. 人生可有知已 (关淑怡)
10. 别问我是谁 (王馨平)
11. 缘份的天空 (汤宝如)
12. 一人有一个梦想 (黎瑞恩)
13. 千个太阳 (黎瑞恩 / 王馨平 / 汤宝如)
14. 飘 (陈慧娴)
15. 傻女 (陈慧娴)
16. 邓丽君金曲:忘记他 (关淑怡) / 月亮代表我的心 (王馨平) / 我只在乎你 (周慧敏) / 小城故事 (汤宝如) / 何日君再来 (关淑怡) / 恰似你的温柔 (王馨平) / 甜蜜蜜 (周慧敏) / 千言万语 (陈慧娴) / 再见!我的爱人 (陈慧娴、周慧敏、王馨平、关淑怡、汤宝如)
17. 离开以后 (张学友)
18. 等到花儿也谢了 (张学友)
19. 一对寂寞的心 (张学友 / 陈慧娴)
20. 长流不息 (张学友 / 黎瑞恩)
21. 相思风雨中 (张学友 / 汤宝如)
22. 问 (张学友 / 关淑怡)
23. 只有情永在 (张学友 / 周慧敏)
24. 我至叻 (陈百祥)
25. 还我真情 (谭咏麟)
26. 情凭谁来定错对 (谭咏麟)
27. 至尊三人组:幻影 (张学友) / 今夜你会不会来 (谭咏麟) / 谁可改变 (黎明) / 那有一天不想你 (张学友) / 忘情冷雨夜 (黎明) / 每天爱你多一些 (谭咏麟)

编码信息:
  1. General
  2.     Unique ID : 250248580997222790375933875202421217195 (0xBC441FA22C00B57C95ED5DA1D418D7AB)
  3.     Format : Matroska
  4.     Format version : Version 1
  5.     File size : 1.85 GiB
  6.     Duration : 1h 57mn
  7.     Overall bit rate : 2 240 Kbps
  8.     Movie name : 寶麗金25周年演唱會
  9.     Encoded date : UTC 2009-09-09 16:30:00
  10.     Writing application : mkvmerge v2.2.0 ('Turn It On Again') built on Mar  4 2008 12:58:26
  11.     Writing library : libebml v0.7.7 + libmatroska v0.8.1

  12.   Video #1
  13.     ID : 1
  14.     Format : AVC
  15.     Format/Info : Advanced Video Codec
  16.     Format profile : Main@L3.0
  17.     Format settings, CABAC : Yes
  18.     Format settings, ReFrames : 4 frames
  19.     Codec ID : V_MPEG4/ISO/AVC
  20.     Duration : 1h 57mn
  21.     Bit rate : 1 939 Kbps
  22.     Width : 720 pixels
  23.     Height : 544 pixels
  24.     Display aspect ratio : 4:3
  25.     Original display aspect ratio : 4:3
  26.     Frame rate : 25.000 fps
  27.     Color space : YUV
  28.     Chroma subsampling : 4:2:0
  29.     Bit depth : 8 bits
  30.     Scan type : Progressive
  31.     Bits/(Pixel*Frame) : 0.198
  32.     Stream size : 1.60 GiB (87%)
  33.     Default : Yes
  34.     Forced : No

  35.   Audio #2
  36.     ID : 2
  37.     Format : MPEG Audio
  38.     Format version : Version 1
  39.     Format profile : Layer 3
  40.     Mode : Joint stereo
  41.     Codec ID : A_MPEG/L3
  42.     Codec ID/Hint : MP3
  43.     Duration : 1h 57mn
  44.     Bit rate mode : Constant
  45.     Bit rate : 256 Kbps
  46.     Channel(s) : 2 channels
  47.     Sampling rate : 48.0 KHz
  48.     Compression mode : Lossy
  49.     Stream size : 216 MiB (11%)
  50.     Language : Chinese
  51.     Default : Yes
  52.     Forced : No
复制代码


购买主题 已有 9 人购买  本主题需向作者支付 100 元荣币 才能浏览
发表于 2014-9-2 14:02 | 显示全部楼层
这场很不错
发表于 2014-12-18 23:33 | 显示全部楼层

找了很久,值得收藏
发表于 2014-12-30 00:29 | 显示全部楼层
謝謝分享經典音樂會﹗
发表于 2015-6-26 16:07 | 显示全部楼层
这部真不错
发表于 2015-8-12 15:15 | 显示全部楼层
相当不错的群星演唱会,算得上是经典了,收下,多谢楼主分享
发表于 2016-12-15 16:13 | 显示全部楼层
这场25周年以前看过是卡拉OK版的,不知道坛主这个是不是欣赏版的?
头像被屏蔽
发表于 2017-3-24 02:15 | 显示全部楼层
提示: 作者被禁止或删除 内容自动屏蔽
发表于 2017-3-29 06:19 | 显示全部楼层
好难得有邓丽君的演唱会呀。谢谢分享。
发表于 2017-3-31 07:42 | 显示全部楼层
一次可以见到这么多歌手,真好。
发表于 2017-4-15 06:35 | 显示全部楼层
省港好歌,尽在宝丽金。
发表于 2018-1-10 10:13 | 显示全部楼层
这个还好,下个看看了
发表于 2018-5-13 10:05 | 显示全部楼层
好资源。。。。。。。。。。。。。。。。。。。
您需要登录后才可以回帖 登录 | 注册 新浪微博登陆

本版积分规则

手机客户端|小黑屋|Archiver|QQ群|关于我们|联系方式| 荣光无限|沪ICP备09096540号-1     

© 2002-2018 荣光无限 - 张国荣歌影迷网   版权所有

快速回复 返回顶部 返回列表