荣光无限论坛

找回密码
注册

扫一扫,访问微社区

新浪微博登陆

只需一步, 快速开始

搜索
热搜: 邀请 充值 邮箱
查看: 4382|回复: 24
收起左侧

2012. 顾嘉煇大师经典演唱会 (BDRip.720P.x264.DTS) [8.7GB]

[复制链接]
发表于 2013-4-12 12:02 | 显示全部楼层 |阅读模式

马上注册,结交更多同道中人,享用更多功能,让你轻松融入哥迷大家庭。

您需要 登录 才可以下载或查看,没有帐号?注册 新浪微博登陆

x
143943mx0m30fmlnw7z6za.jpg

顾嘉煇大师经典演唱会 (2 Blu-Ray)
多角度全高清 HD 摄制 超凡享受 极尽视听
双蓝光现场 KARAOKE+幕后制作花絮
金曲经典 完美纪录 再三回味
Blu-ray 追加歌曲 - 张学友-万水千山纵横


内容简介:

  音乐大师顾嘉煇于2012年11月30日至12月5日举行在香港红馆举行四场作品展,《顾嘉煇大师经典演唱会》邀请了郑少秋、林子祥、仙杜拉、叶丽仪、黄耀明、叶振棠、张德兰、谢安琪、罗家良、陈洁灵、凌波、李乐诗等歌手助阵,由丘亚葵制作。为悼念黄霑,顾嘉煇在作品展中挑选多首故友的作品,包括由林子祥和谢安琪合唱经典作“俩忘烟水里”、叶振棠演绎“忘尽心中情”、叶丽仪和陈洁灵合唱的“世间始终你好”和群星压轴演唱的“狮子山下”,并请来黄耀明演绎纪念罗文逝世十周年的金曲“强人”,以及前辈凌波献唱“郊道”。

  《顾嘉煇大师经典演唱会》蓝光影碟收录当晚现场精彩作品和制作花絮,此版本收录特别嘉宾张学友主唱的“万水千山纵横 ”,谭詠麟主唱的《谁可改变》,陈奕迅主唱的《摘星》。  

曲目列表:

Disc 1
01. 蝶变 - 林子祥 电影《蝶变》主题曲
02. 抉择 - 林子祥 电视剧《抉择》主题曲
03. 俩忘烟水里 - 林子祥 谢安琪 电视剧《天龙八部之六脉神剑》主题曲
04. 随想曲 - 谢安琪
05. 啼笑姻缘 - 仙杜拉 电视剧《啼笑姻缘》主题曲
06. 风云 - 仙杜拉 电视剧《风云》主题曲
07. 凤阁恩仇未了情 - 仙杜拉
08. 鲜花满月楼 - 张德兰 电视剧《陆小凤》插曲
09. 愿君心记取 - 张德兰 电视剧《陆小凤之决战前后》插曲
10. 小时候 - 张德兰 香港电台电视剧《小时候》主题曲
11. 点解手牵手 - 张德兰 电影《大家乐》插曲
12. 情比雨丝 - 张德兰
13. 网中人 - 张德兰 电视剧《网中人》主题曲
14. 无悔爱你一生 - 李乐诗 电视剧《真情》主题曲
15. 祗有情永在 - 李乐诗 罗嘉良 电视剧《贼公阿牛》主题曲
16. 季节 - 罗嘉良 电视剧《季节》主题曲
17. 郊道 - 凌波 电影《血手印》主题曲
18. 访英台 - 凌波 电影《梁山伯与祝英台》插曲
19. 戏班小子 - 叶振棠 电视剧《戏班小子》主题曲
20. 忘尽心中情 - 叶振棠 电视剧《苏乞儿》主题曲
21. 笑傲江湖 - 叶振棠 叶丽仪 电视剧《笑傲江湖》主题曲
22. 女黑侠木兰花 - 叶丽仪 电视剧《女黑侠木兰花》主题曲
23. 梦 - 叶丽仪 电影《不了情》插曲
24. 上海滩 - 叶丽仪 电视剧《上海滩》主题曲
25. 铁血丹心 - 叶丽仪 陈洁灵 电视剧《射雕英雄传之铁血丹心》主题曲
26. 世间始终你好 - 叶丽仪 陈洁灵 电视剧《射雕英雄传之华山论剑》主题曲
27. 今晚夜 - 陈洁灵 电视剧《星尘》插曲
28. 星夜星尘 - 陈洁灵 电视剧《星尘》主题曲
29. 家变 - 陈洁灵 电视剧《家变》主题曲
30. 强人 - 黄耀明 电视剧《强人》主题曲
31. 明日之歌 - 黄耀明 电影《明日之歌》主题曲
32. 陆小凤 - 郑少秋 电视剧《陆小凤》主题曲
33. 书剑恩仇录 - 郑少秋 电视剧《书剑恩仇录》主题曲
34. 无敌是最寂寞 - 郑少秋 电视剧《一剑镇神州》插曲
35. 楚留香 - 郑少秋 电视剧《楚留香》主题曲
36. 倚天屠龙记 - 郑少秋 电视剧《倚天屠龙记》主题曲
37. 做人爱自由 - 郑少秋 电视剧《流氓皇帝》主题曲
38. 饮胜 - 郑少秋 电视剧《流氓皇帝》插曲
39. 决战前夕 - 郑少秋 电视剧《陆小凤之决战前后》插曲
40. 轮流转 - 郑少秋 电视剧《轮流转》主题曲
41. 狮子山下 - 群星合唱 港台剧《狮子山下》主题曲

Disc 2
01. 万水千山纵横 - 张学友 电视剧《天龙八部之虚竹传奇》主题曲
02. 谁可改变 - 谭咏麟 电视剧《天师执位》主题曲
03. 摘星 - 陈奕迅 84-85禁毒主题曲

编码信息:
  1.     General
  2.     Unique ID : 243083663646829791573334805989472713898 (0xB6E035EF2E9ACFE9ABE438141F65BCAA)
  3.     Complete name : Joseph Koo Concert 2012 (Blu-ray.720p.DTS.x264).mkv
  4.     Format : Matroska
  5.     Format version : Version 2
  6.     File size : 8.71 GiB
  7.     Duration : 2h 47mn
  8.     Overall bit rate : 7 449 Kbps
  9.     Encoded date : UTC 2013-04-06 04:51:06
  10.     Writing application : mkvmerge v3.2.0 ('Beginnings') built on Feb 12 2010 16:46:17
  11.     Writing library : libebml v0.7.9 + libmatroska v0.8.1

  12.     Video #1
  13.     ID : 1
  14.     Format : AVC
  15.     Format/Info : Advanced Video Codec
  16.     Format profile : High@L4.1
  17.     Format settings, CABAC : Yes
  18.     Format settings, ReFrames : 9 frames
  19.     Codec ID : V_MPEG4/ISO/AVC
  20.     Duration : 2h 47mn
  21.     Bit rate : 6 486 Kbps
  22.     Width : 1 280 pixels
  23.     Height : 720 pixels
  24.     Display aspect ratio : 16:9
  25.     Frame rate mode : Constant
  26.     Frame rate : 29.970 fps
  27.     Color space : YUV
  28.     Chroma subsampling : 4:2:0
  29.     Bit depth : 8 bits
  30.     Scan type : Progressive
  31.     Bits/(Pixel*Frame) : 0.235
  32.     Stream size : 7.41 GiB (85%)
  33.     Writing library : x264 core 130 r2273 b3065e6
  34.     Encoding settings : cabac=1 / ref=9 / deblock=1:-3:-3 / analyse=0x3:0x113 / me=umh / subme=10 / psy=1 / psy_rd=1.00:0.05 / mixed_ref=1 / me_range=32 / chroma_me=1 / trellis=2 / 8x8dct=1 / cqm=0 / deadzone=21,11 / fast_pskip=0 / chroma_qp_offset=-2 / threads=8 / lookahead_threads=1 / sliced_threads=0 / nr=0 / decimate=1 / interlaced=0 / bluray_compat=0 / constrained_intra=0 / bframes=5 / b_pyramid=2 / b_adapt=2 / b_bias=0 / direct=3 / weightb=1 / open_gop=0 / weightp=2 / keyint=250 / keyint_min=25 / scenecut=40 / intra_refresh=0 / rc=2pass / mbtree=0 / bitrate=6486 / ratetol=1.0 / qcomp=0.70 / qpmin=0 / qpmax=69 / qpstep=4 / cplxblur=20.0 / qblur=0.5 / ip_ratio=1.40 / pb_ratio=1.30 / aq=2:0.90
  35.     Language : Chinese
  36.     Default : No
  37.     Forced : No

  38.     Audio #2
  39.     ID : 2
  40.     Format : DTS
  41.     Format/Info : Digital Theater Systems
  42.     Mode : 16
  43.     Format settings, Endianness : Big
  44.     Codec ID : A_DTS
  45.     Duration : 2h 47mn
  46.     Bit rate mode : Constant
  47.     Bit rate : 768 Kbps
  48.     Channel(s) : 6 channels
  49.     Channel positions : Front: L C R, Side: L R, LFE
  50.     Sampling rate : 48.0 KHz
  51.     Bit depth : 24 bits
  52.     Compression mode : Lossy
  53.     Stream size : 919 MiB (10%)
  54.     Title : 原唱 dts 5.1 768kbps
  55.     Language : Chinese
  56.     Default : Yes
  57.     Forced : No

  58.     Audio #3
  59.     ID : 3
  60.     Format : AC-3
  61.     Format/Info : Audio Coding 3
  62.     Mode extension : CM (complete main)
  63.     Format settings, Endianness : Big
  64.     Codec ID : A_AC3
  65.     Duration : 2h 47mn
  66.     Bit rate mode : Constant
  67.     Bit rate : 192 Kbps
  68.     Channel(s) : 2 channels
  69.     Channel positions : Front: L R
  70.     Sampling rate : 48.0 KHz
  71.     Bit depth : 16 bits
  72.     Compression mode : Lossy
  73.     Stream size : 230 MiB (3%)
  74.     Title : 卡拉ok ac3 2.0 192kbps KARAOKE
  75.     Language : Chinese
  76.     Default : No
  77.     Forced : No
  78.     Menu
  79.     00:00:00.000 : en:蝶变 - 林子祥 电影《蝶变》主题曲
  80.     00:13:08.321 : en:抉择 - 林子祥 电视剧《抉择》主题曲
  81.     00:18:20.433 : en:俩忘烟水里 - 林子祥 谢安琪 电视剧《天龙八部之六脉神剑》主题曲
  82.     00:23:48.661 : en:随想曲 - 谢安琪
  83.     00:27:48.534 : en:啼笑姻缘 - 仙杜拉 电视剧《啼笑姻缘》主题曲
  84.     00:35:15.380 : en:风云 - 仙杜拉 电视剧《风云》主题曲
  85.     00:38:26.371 : en:凤阁恩仇未了情 - 仙杜拉
  86.     00:40:50.581 : en:鲜花满月楼 - 张德兰 电视剧《陆小凤》插曲
  87.     00:44:24.996 : en:愿君心记取 - 张德兰 电视剧《陆小凤之决战前后》插曲
  88.     00:47:29.980 : en:小时候 - 张德兰 香港电台电视剧《小时候》主题曲
  89.     00:49:05.276 : en:点解手牵手 - 张德兰 电影《大家乐》插曲
  90.     00:51:29.520 : en:情比雨丝 - 张德兰
  91.     00:54:17.988 : en:网中人 - 张德兰 电视剧《网中人》主题曲
  92.     00:57:51.001 : en:无悔爱你一生 - 李乐诗 电视剧《真情》主题曲
  93.     01:02:36.886 : en:祗有情永在 - 李乐诗 罗嘉良 电视剧《贼公阿牛》主题曲
  94.     01:07:28.811 : en:季节 - 罗嘉良 电视剧《季节》主题曲
  95.     01:13:44.086 : en:郊道 - 凌波 电影《血手印》主题曲
  96.     01:17:07.289 : en:访英台 - 凌波 电影《梁山伯与祝英台》插曲
  97.     01:20:24.586 : en:戏班小子 - 叶振棠 电视剧《戏班小子》主题曲
  98.     01:23:51.360 : en:忘尽心中情 - 叶振棠 电视剧《苏乞儿》主题曲
  99.     01:28:01.776 : en:笑傲江湖 - 叶振棠 叶丽仪 电视剧《笑傲江湖》主题曲
  100.     01:32:25.173 : en:女黑侠木兰花 - 叶丽仪 电视剧《女黑侠木兰花》主题曲
  101.     01:37:19.300 : en:梦 - 叶丽仪 电影《不了情》插曲
  102.     01:42:51.399 : en:上海滩 - 叶丽仪 电视剧《上海滩》主题曲
  103.     01:50:34.027 : en:铁血丹心 - 叶丽仪 陈洁灵 电视剧《射雕英雄传之铁血丹心》主题曲
  104.     01:52:07.387 : en:世间始终你好 - 叶丽仪 陈洁灵 电视剧《射雕英雄传之华山论剑》主题曲
  105.     01:54:48.014 : en:今晚夜 - 陈洁灵 电视剧《星尘》插曲
  106.     02:00:41.568 : en:星夜星尘 - 陈洁灵 电视剧《星尘》主题曲
  107.     02:04:40.440 : en:家变 - 陈洁灵 电视剧《家变》主题曲
  108.     02:08:04.043 : en:强人 - 黄耀明 电视剧《强人》主题曲
  109.     02:12:30.676 : en:明日之歌 - 黄耀明 电影《明日之歌》主题曲
  110.     02:16:39.992 : en:陆小凤 - 郑少秋 电视剧《陆小凤》主题曲
  111.     02:18:58.130 : en:书剑恩仇录 - 郑少秋 电视剧《书剑恩仇录》主题曲
  112.     02:20:02.127 : en:无敌是最寂寞 - 郑少秋 电视剧《一剑镇神州》插曲
  113.     02:21:55.040 : en:楚留香 - 郑少秋 电视剧《楚留香》主题曲
  114.     02:23:13.985 : en:倚天屠龙记 - 郑少秋 电视剧《倚天屠龙记》主题曲
  115.     02:26:58.343 : en:做人爱自由 - 郑少秋 电视剧《流氓皇帝》主题曲
  116.     02:29:52.784 : en:饮胜 - 郑少秋 电视剧《流氓皇帝》插曲
  117.     02:32:27.472 : en:决战前夕 - 郑少秋 电视剧《陆小凤之决战前后》插曲
  118.     02:35:57.014 : en:轮流转 - 郑少秋 电视剧《轮流转》主题曲
  119.     02:39:48.012 : en:狮子山下 - 群星合唱 港台剧《狮子山下》主题曲
复制代码
下载地址:

游客,如果您要查看本帖隐藏内容请回复

发表于 2013-4-12 13:27 | 显示全部楼层
我以为只是音频呢。。
发表于 2013-4-13 10:55 | 显示全部楼层
感谢分享~~big hug..
发表于 2013-4-15 17:44 | 显示全部楼层
多謝分享!
发表于 2013-5-18 08:09 | 显示全部楼层
感谢分享,好东西呀,木木
发表于 2013-8-4 17:04 | 显示全部楼层
顾嘉辉的作品听的太多了,太值得回忆了。
发表于 2014-9-2 20:14 | 显示全部楼层
真的很经典
发表于 2014-9-9 18:51 | 显示全部楼层
谢谢分享,.顾嘉辉大师作品好好收藏
发表于 2014-12-30 21:03 | 显示全部楼层
謝謝分享經典演唱會﹗
发表于 2015-1-15 14:43 | 显示全部楼层
多谢楼主分享楼主辛苦了
发表于 2015-4-14 16:04 | 显示全部楼层
Joseph.Koo.Concert.2012.BluRay.720p.DTS.KARAOKE.Disc1
发表于 2015-5-28 18:26 | 显示全部楼层
非常喜欢这两位大师
发表于 2015-6-1 20:12 | 显示全部楼层
怎么没有提取码
发表于 2015-8-3 11:05 | 显示全部楼层
哼瞎换顾大师作品,谢谢楼主分享!
发表于 2016-6-17 19:42 | 显示全部楼层
ddddddddddddddddd
您需要登录后才可以回帖 登录 | 注册 新浪微博登陆

本版积分规则

手机客户端|小黑屋|Archiver|QQ群|关于我们|联系方式| 荣光无限|沪ICP备09096540号-1     

© 2002-2018 荣光无限 - 张国荣歌影迷网   版权所有

快速回复 返回顶部 返回列表